Правила форума

  • В этом разделе создание новых тем Запрещено.
  • Для создания новых тем пользуйтесь Корневым разделом DVD и HD фильмы.
Начать новую темуОтветить на тему  [ Сообщений: 11 ] 
Торрент файл
Размер: 9.76 GB • Зарегистрирован: 5 лет 7 месяцев • Статус: Проверено
Скачан: 344 раза • Желающих скачать: 0 • Поблагодарили: 49 раз
 Раздают: 0  |  0 KB/s  ]   Качают: 0  |  0 KB/s  ] 
 Полного источника не было 1 месяц 2 дня 
Сообщения
 Добавлено: 2011-05-06 20:11
Модератор
Аватара пользователя
Стаж: 8 лет 1 месяц
Возраст: 20
Сообщений: 32130
Спасибок: 98569
Лайков: 80
Орел Девятого легиона / The Eagle

Изображение
Год выпуска: 2011
Страна: Изображение США
Жанр: драма, история
Продолжительность: 01:49:24
Перевод: Профессиональный (полное дублирование) [лицензия]

В ролях: Ченнинг Татум (Marcus Aquila), Джейми Белл (Esca), Дональд Сазерленд (Uncle Aquila), Марк Стронг (Guern), Дэкин Мэтьюз (Claudius), Истван Гёз (Cohort Centurion), Дэнис О’Харе (Lutorius), Пол Риттер (Galba), Жолт Ласло (Paulus), Джулиан Льюис Джонс (Cassius), Аладар Лаклос (Flavius Aquila), Марселл Миклош (Fort Legionary #1)
Дублёры: Василий Дахненко (Marcus Aquila) (Marcus Aquila), Евгений Вальц (Esca) (Esca), Игорь Старосельцев (Uncle Aquila) (Uncle Aquila), Валерий Сторожик (Guern) (Guern), Алексей Борзунов (Claudius) (Claudius)
Описание: II век нашей эры. Молодой центурион Маркус Акила прибывает из Рима на Британские острова, и отправляется в горы Шотландии на поиски пропавшего 20 лет назад легендарного Девятого легиона, которым командовал его отец… Дикие племена и непредсказуемые опасности стоят на пути героя, но он во чтобы то ни стало должен найти след римских воинов и спасти главный символ легиона - Орла Девяти.

Раздача: Изображение

Изображение
Изображение
Доп. информация
Бюджет: $25 000 000
Сборы в мире: $32 708 156
Сборы в США: $19 490 041
Сборы в России: $4 065 840
Мировая премьера: 9 февраля 2011
Изображение Релиз на DVD: 21 апреля 2011, «Парадиз Видео»
Изображение Релиз на Blu-ray: 5 мая 2011, «Парадиз Видео»
MediaInfo…
Общее
Уникальный идентификатор : 207554527256457666505742632889556591935 (0x9C258C441166BB2CA53B51C2360EE53F)
Полное имя : D:\Фильмы\The.Eagle.2011.1080p.BDRip.NNTT.k236.mkv
Формат : Matroska
Размер файла : 9,76 Гбайт
Продолжительность : 1 ч. 54 м.
Общий поток : 12,2 Мбит/сек
Название фильма : NoNaMe
Дата кодирования : UTC 2011-04-24 09:55:46
Программа кодирования : mkvmerge v3.1.0 ('Happy up here') built on Jan 19 2010 12:09:24
Библиотека кодирования : libebml v0.7.9 + libmatroska v0.8.1

Видео
Идентификатор : 1
Формат : AVC
Формат/Информация : Advanced Video Codec
Профиль формата : High@L4.1
Параметр CABAC формата : Да
Параметр ReFrames формата : 8 кадров
Идентификатор кодека : V_MPEG4/ISO/AVC
Продолжительность : 1 ч. 54 м.
Битрейт : 10,4 Мбит/сек
Ширина : 1920 пикс.
Высота : 816 пикс.
Соотношение сторон : 2,35:1
Частота кадров : 23,976 кадр/сек
Цветовое пространство : YUV
Подвыборка цветности : 4:2:0
Битовая глубина : 8 бит
Тип развёртки : Прогрессивная
Бит/(Пиксели*Кадры) : 0.276
Размер потока : 8,06 Гбайт (83%)
Библиотека кодирования : x264 core 92 r1510 33d382a
Настройки программы : cabac=1 / ref=8 / deblock=1:-1:-1 / analyse=0x3:0x133 / me=umh / subme=7 / psy=1 / psy_rd=2.00:1.00 / mixed_ref=1 / me_range=16 / chroma_me=1 / trellis=2 / 8x8dct=1 / cqm=0 / deadzone=21,11 / fast_pskip=0 / chroma_qp_offset=-4 / threads=3 / sliced_threads=0 / nr=0 / decimate=1 / interlaced=0 / constrained_intra=0 / bframes=5 / b_pyramid=2 / b_adapt=2 / b_bias=0 / direct=3 / wpredb=1 / wpredp=2 / keyint=250 / keyint_min=25 / scenecut=40 / intra_refresh=0 / rc_lookahead=50 / rc=2pass / mbtree=1 / bitrate=10376 / ratetol=1.0 / qcomp=0.60 / qpmin=10 / qpmax=51 / qpstep=4 / cplxblur=20.0 / qblur=0.5 / ip_ratio=1.40 / aq=1:1.00
Язык : English

Аудио #1
Идентификатор : 2
Формат : AC-3
Формат/Информация : Audio Coding 3
Расширение режима : CM (complete main)
Идентификатор кодека : A_AC3
Продолжительность : 1 ч. 54 м.
Вид битрейта : Постоянный
Битрейт : 384 Кбит/сек
Каналы : 6 каналов
Расположение каналов : Front: L C R, Side: L R, LFE
Частота : 48,0 КГц
Битовая глубина : 16 бит
Метод сжатия : С потерями
Размер потока : 313 Мбайт (3%)
Заголовок : Dub R5
Язык : Russian

Аудио #2
Идентификатор : 3
Формат : DTS
Формат/Информация : Digital Theater Systems
Идентификатор кодека : A_DTS
Продолжительность : 1 ч. 54 м.
Вид битрейта : Постоянный
Битрейт : 1510 Кбит/сек
Каналы : 6 каналов
Расположение каналов : Front: L C R, Side: L R, LFE
Частота : 48,0 КГц
Битовая глубина : 24 бит
Метод сжатия : С потерями
Размер потока : 1,20 Гбайт (12%)
Заголовок : Original
Язык : English

Текст #1
Идентификатор : 4
Формат : UTF-8
Идентификатор кодека : S_TEXT/UTF8
Идентификатор кодека/Информация : UTF-8 Plain Text
Язык : Russian

Текст #2
Идентификатор : 5
Формат : UTF-8
Идентификатор кодека : S_TEXT/UTF8
Идентификатор кодека/Информация : UTF-8 Plain Text
Язык : English
Свернуть
Свернуть

MPAA: Изображение
Качество: BDRip 1080p R5
Формат: MKV
Видеокодек: MPEG-4 AVC/H.264
Видео: 1920 x 816, ~10,4 Мбит/сек, 23,976 кадр/сек
Аудио #1: AC3 5.1, 384 kbps, 48 kHz (Русский)
Аудио #2: DTS 5.1, 1510 kbps, 48 kHz (Английский)

Скриншоты
Изображение
Изображение
Изображение
Свернуть
Не в сети
Профиль  
 Добавлено: 2011-05-07 09:16 (спустя 13 часов)
Аватара пользователя
Стаж: 5 лет 9 месяцев
Возраст: 32
Сообщений: 17
спасибо +++++
Не в сети
Профиль  
 Добавлено: 2011-05-07 17:16 (спустя 8 часов)
Аватара пользователя
Стаж: 7 лет 5 месяцев
Сообщений: 35
Очень жаль, но фильм получился одноразовым и ничем не запоминающимся! Ожидал гораздо большего.
Не в сети
Профиль  
 Добавлено: 2011-05-07 18:58 (спустя 1 час 41 минута)
Кинокомментатор
Аватара пользователя
Стаж: 9 лет 1 месяц
Сообщений: 1332
Лайков: 54
для всех кто ждал HD ))) честно!?) мне понравилось!) грамотно! красиво! по мужски! про дружбу! про настоящую дружбу, про то как она получается! про Рим! про Британию! женщин вообще в фильме по сути нет) да они и не нужны, когда есть что то серьёзное, когда люди меняют мир:) мне понравилось!) 8 точно;)
Не в сети
Профиль  
 Добавлено: 2011-05-07 19:54 (спустя 56 минут)
Модератор
Аватара пользователя
Стаж: 8 лет 1 месяц
Возраст: 20
Сообщений: 32130
Спасибок: 98569
Лайков: 80
Bronks
BDRip 1080p был уже готов и раздавался на другом трекере 26 апреля. ))
Не в сети
Профиль  
 Добавлено: 2011-05-10 16:39 (спустя 2 дня 20 часов)
Аватара пользователя
Стаж: 8 лет 11 месяцев
Сообщений: 517
Спасибок: 39
Лайков: 49
Первый скрин несёт очень глубокий смысл
Не в сети
Профиль  
 Добавлено: 2011-05-10 17:15 (спустя 36 минут)
Модератор
Аватара пользователя
Стаж: 8 лет 1 месяц
Возраст: 20
Сообщений: 32130
Спасибок: 98569
Лайков: 80
Микки
а ты по скринам судишь смысл фильма ?
Они показатель качества.
Не в сети
Профиль  
 Добавлено: 2011-05-10 19:38 (спустя 2 часа 23 минуты)
Аватара пользователя
Стаж: 8 лет 11 месяцев
Сообщений: 517
Спасибок: 39
Лайков: 49

Костян236:

Микки
а ты по скринам судишь смысл фильма ?
Они показатель качества.

Волосиков невидно, значит качество DVD (даже на дивиди сблизи видны волосики)
Не в сети
Профиль  
 Добавлено: 2011-05-10 21:39 (спустя 2 часа)
Аватара пользователя
Стаж: 8 лет 11 месяцев
Сообщений: 517
Спасибок: 39
Лайков: 49
Посмотрел качество. Ну в принцыпе уже на скринах всё видно. Качество хорошего DVD, и только! Даже на 720 p не тянет, про 1080 p я вообще молчу. Контрас никудышный, короче мужик взял и растянул обычный DVD до блюрэя, ну и ессно об этом никого не предупердил.
P.S. Проверял на 55 дюймовом ледовском самсунге, где малейшие отличия в качестве тут же бросаются в глаза.
Не в сети
Профиль  
 Добавлено: 2011-05-21 20:17 (спустя 10 дней)
Top-releaser
Аватара пользователя
Стаж: 8 лет 7 месяцев
Сообщений: 1286
Спасибок: 3420
Лайков: 7
Микки +1 Я тоже по скринам увидел что качество овно, похоже что рип из ДВД делали.
Не в сети
Профиль  
 Добавлено: 2011-08-22 17:28 (спустя 3 месяца)
Аватара пользователя
Стаж: 7 лет 11 месяцев
Сообщений: 786
Спасибок: 25
Лайков: 9
а мне фильм понравился , качество конечно хочется получше :men:
Не в сети
Профиль  
Начать новую темуОтветить на тему  [ Сообщений: 11 ] 
Вы не можете начинать темы
Вы не можете отвечать на сообщения
Вы не можете редактировать свои сообщения
Вы не можете удалять свои сообщения