Правила форума

  • В этом разделе создание новых тем Запрещено.
  • Для создания новых тем пользуйтесь Корневым разделом DVD и HD фильмы.
Начать новую темуОтветить на тему  [ 1 сообщение ] 
Торрент файл
Размер: 6.22 GB • Зарегистрирован: 4 года 1 месяц • Статус: Проверено
Скачан: 14 раз • Желающих скачать: 0 • Поблагодарили: 7 раз
 Раздают: 0  |  0 KB/s  ]   Качают: 0  |  0 KB/s  ] 
 Полного источника не было 3 года 2 месяца 
Сообщения
 Добавлено: 2012-10-19 18:10
Top-releaser
Аватара пользователя
Стаж: 6 лет 7 месяцев
Сообщений: 2078
Спасибок: 3229
Лайков: 9
Изображение

Орел Девятого легиона
The Eagle


Год выпуска: 2010
Страна: США
Слоган: «The destiny of a soldier. The honour of a slave. The fate of an empire.»
Жанр: драма, история
Продолжительность: 01:54:09
Перевод: Профессиональный (полное дублирование)
Режиссер: Кевин МакДональд
Сценарий: Джереми Брок, Розмари Сатклифф
Продюсер: Дункан Кенуорси, Кэролайн Хьюит, Майлз Кетли, Чарльз Мур, Тесса Росс
Оператор: Энтони Дод Мэнтл
Композитор: Этли Орварссон
В ролях: Ченнинг Татум, Джейми Белл, Дональд Сазерленд, Марк Стронг, Дэкин Мэтьюз, Истван Гёз, Бенс Геро, Дэнис О’Харе, Пол Риттер, Жолт Ласло, Джулиан Льюис Джонс, Аладар Лаклос
Бюджет: $25 000 000
Сборы в США: $19 490 041
Сборы в России: $4 065 840
Сборы в мире: $27 122 040
Мировая премьера: 9 февраля 2011
Релиз на DVD: 21 апреля 2011, «Парадиз Медиа»
Релиз на Blu-ray: 5 мая 2011, «Парадиз Медиа»
Описание: II век нашей эры. Молодой центурион Маркус Акила прибывает из Рима на Британские острова, и отправляется в горы Шотландии на поиски пропавшего 20 лет назад легендарного Девятого легиона, которым командовал его отец. Дикие племена и непредсказуемые опасности стоят на пути героя, но он во чтобы то ни стало должен найти след римских воинов и спасти главный символ легиона - Орла Девяти.
Раздача группы: Изображение

Изображение User Rating: 6.805 (16 898)
Изображение User Rating: 6.20 (30 993)
MPAA: PG-13 - Детям до 13 лет просмотр не желателен
Качество: BDRip, 720p
Формат: Matroska
Видео: AVC; 1280x544 (2.35:1); 4620 Kbps; 23,976 fps; 0,277 bit/pixel
Аудио №1: Russian; DTS; 1509 Kbps; CBR; 6 ch; 16 bit
Аудио №2: English; DTS; 1509 Kbps; CBR; 6 ch; 24 bit

Субтитры №1: Russian, English

MediaInfo
Общее
Уникальный идентификатор : 234446960356504395766483396809041684258 (0xB060D795F868B39E82D523B72694A722)
Полное имя : Z:\WWW\TR-Downloads\The.Eagle.720p.[R.G.Daredevil].mkv
Формат : Matroska
Версия формата : Version 2
Размер файла : 6,22 Гбайт
Продолжительность : 1 ч. 54 м.
Общий поток : 7795 Кбит/сек
Название фильма : The Eagle (2011) - Release for HDCLUB
Дата кодирования : UTC 2011-06-13 22:29:49
Программа кодирования : mkvmerge v3.4.0 ('Rapunzel') built on May 15 2010 09:38:20
Библиотека кодирования : libebml v0.8.0 + libmatroska v0.9.0

Видео
Идентификатор : 1
Формат : AVC
Формат/Информация : Advanced Video Codec
Профиль формата : High@L4.1
Параметр CABAC формата : Да
Параметр ReFrames формата : 12 кадров
Идентификатор кодека : V_MPEG4/ISO/AVC
Продолжительность : 1 ч. 54 м.
Битрейт : 4774 Кбит/сек
Ширина : 1280 пикселей
Высота : 544 пикселя
Соотношение сторон : 2,35:1
Частота кадров : 23,976 кадра/сек
Цветовое пространство : YUV
Субдискретизация насыщенности : 4:2:0
Битовая глубина : 8 бит
Тип развёртки : Прогрессивная
Бит/(Пиксели*Кадры) : 0.286
Размер потока : 3,68 Гбайт (59%)
Заголовок : Release for HDCLUB
Библиотека кодирования : x264 core 114 r1913 5fd3dce
Настройки программы : cabac=1 / ref=12 / deblock=1:-3:-3 / analyse=0x3:0x113 / me=umh / subme=10 / psy=1 / psy_rd=1.10:0.15 / mixed_ref=1 / me_range=32 / chroma_me=1 / trellis=2 / 8x8dct=1 / cqm=2 / deadzone=21,11 / fast_pskip=0 / chroma_qp_offset=-2 / threads=12 / sliced_threads=0 / nr=0 / decimate=1 / interlaced=0 / constrained_intra=0 / bframes=6 / b_pyramid=2 / b_adapt=2 / b_bias=0 / direct=3 / weightb=1 / open_gop=0 / weightp=2 / keyint=250 / keyint_min=23 / scenecut=40 / intra_refresh=0 / rc_lookahead=60 / rc=2pass / mbtree=1 / bitrate=4774 / ratetol=1.0 / qcomp=0.60 / qpmin=1 / qpmax=63 / qpstep=4 / cplxblur=20.0 / qblur=0.5 / vbv_maxrate=40000 / vbv_bufsize=30000 / nal_hrd=none / ip_ratio=1.40 / aq=1:0.80
Язык : English
Default : Да
Forced : Нет

Аудио #1
Идентификатор : 2
Формат : DTS
Формат/Информация : Digital Theater Systems
Идентификатор кодека : A_DTS
Продолжительность : 1 ч. 54 м.
Вид битрейта : Постоянный
Битрейт : 1510 Кбит/сек
Каналы : 6 каналов
Расположение каналов : Front: L C R, Side: L R, LFE
Частота : 48,0 КГц
Битовая глубина : 16 бит
Метод сжатия : С потерями
Размер потока : 1,20 Гбайт (19%)
Заголовок : DTS 5.1 @ 1536 kbps - Дублированный
Язык : Russian
Default : Да
Forced : Нет

Аудио #2
Идентификатор : 3
Формат : DTS
Формат/Информация : Digital Theater Systems
Идентификатор кодека : A_DTS
Продолжительность : 1 ч. 54 м.
Вид битрейта : Постоянный
Битрейт : 1510 Кбит/сек
Каналы : 6 каналов
Расположение каналов : Front: L C R, Side: L R, LFE
Частота : 48,0 КГц
Битовая глубина : 24 бит
Метод сжатия : С потерями
Размер потока : 1,20 Гбайт (19%)
Заголовок : DTS 5.1 @ 1536 kbps
Язык : English
Default : Нет
Forced : Нет

Текст #1
Идентификатор : 4
Формат : UTF-8
Идентификатор кодека : S_TEXT/UTF8
Идентификатор кодека/Информация : UTF-8 Plain Text
Язык : Russian
Default : Нет
Forced : Нет

Текст #2
Идентификатор : 5
Формат : UTF-8
Идентификатор кодека : S_TEXT/UTF8
Идентификатор кодека/Информация : UTF-8 Plain Text
Язык : English
Default : Нет
Forced : Нет
Свернуть
Скриншоты

Изображение
Изображение
Изображение
Изображение
Изображение
Свернуть
Не в сети
Профиль  
Начать новую темуОтветить на тему  [ 1 сообщение ] 
Вы не можете начинать темы
Вы не можете отвечать на сообщения
Вы не можете редактировать свои сообщения
Вы не можете удалять свои сообщения