Правила форума

  • В этом разделе создание новых тем Запрещено.
  • Для создания новых тем пользуйтесь Корневым разделом DVD и HD фильмы.
Начать новую темуОтветить на тему  [ 1 сообщение ] 
Торрент файл
Размер: 5.27 GB • Зарегистрирован: 4 года 1 месяц • Статус: Проверено
Скачан: 21 раз • Желающих скачать: 0 • Поблагодарили: 9 раз
 Раздают: 0  |  0 KB/s  ]   Качают: 0  |  0 KB/s  ] 
 Полного источника не было 2 года 6 месяцев 
Сообщения
 Добавлено: 2012-10-19 13:24
Top-releaser
Аватара пользователя
Стаж: 6 лет 7 месяцев
Сообщений: 2078
Спасибок: 3230
Лайков: 9
Изображение

Оружейный барон
Lord of War


Год выпуска: 2005
Страна: Франция, США, Германия
Слоган: «Первое правило торговца оружием – не будь подстрелен из своего же собственного товара»
Жанр: триллер, драма, криминал
Продолжительность: 02:01:46
Перевод: Профессиональный (полное дублирование)
Режиссер: Эндрю Никкол
Сценарий: Эндрю Никкол
Продюсер: Артемио Бенки, Гари Хэмилтон, Дуглас Хансен, Майкл Мендельсон, Эндрю Никкол
Оператор: Амир М. Мокри
Композитор: Антонио Пинто
В ролях: Николас Кейдж, Бриджет Мойнэхэн, Джаред Лето, Итан Хоук, Иэн Холм, Сэмми Ротиби, Имонн Уолкер, Дэвид Хармен, Евгений Лазарев, Джаспер Ленц, Стивен Грегор, Кобус Маркс
Бюджет: $50 000 000
Сборы в США: $24 149 632
Сборы в России: $208 279
Сборы в мире: $72 617 068
Мировая премьера: 16 сентября 2005
Релиз на DVD: 9 февраля 2006, «Союз-Видео»
Описание: Родители братьев Орловых, старшего Юрия и младшего Виталия, покинули Украину и обосновались в Америке, на Брайтон-Бич, где открыли маленький ресторанчик. Дети же не рвались идти по родительским стопам. Юрий, раздумывая, чем заниматься, пришел к выводу: самое выгодное - торговать оружием. Потому что в мире, переполненном агрессией, оружие никогда не бывает лишним. Оно нужно и родственникам, дерущимся друг с другом, и конкурирующим бандам, и враждующим государствам.
Юрий Орлов, опираясь на младшего брата Виталия, быстро завоевывает свое место под солнцем и надеется в скором времени стать таким же крутым «продавцом смерти», как его кумир Симеон Вайс. Но чем выше поднимается Юрий, тем ближе к нему подбирается агент Интерпола Джек Валентайн.

Раздача группы: Изображение

Изображение User Rating: 7.797 (31 545)
Изображение User Rating: 7.60 (149 165)
MPAA: R - Лицам до 17 лет обязательно присутствие взрослого
Качество: BDRip, 720p
Формат: Matroska
Видео: AVC; 1280x532 (2.40:1); 4092 Kbps; 23,976 fps; 0,251 bit/pixel
Аудио №1: Russian; AC3; 448 Kbps; CBR; 6 ch
Аудио №2: Russian; AC3; 448 Kbps; CBR; 6 ch
Аудио №3: Russian; AC3; 448 Kbps; CBR; 6 ch
Аудио №4: English; AC3; 640 Kbps; CBR; 6 ch

Субтитры: Russian, English

MediaInfo
Общее
Уникальный идентификатор : 171869977764302436553364272593718215784 (0x814CF423D4D6EF76AB4680CAC3800468)
Полное имя : Z:\WWW\TR-Downloads\Lord.of.War.[R.G.Daredevil].mkv
Формат : Matroska
Версия формата : Version 2
Размер файла : 5,27 Гбайт
Продолжительность : 2 ч. 1 м.
Общий поток : 6200 Кбит/сек
Дата кодирования : UTC 2010-11-27 18:30:53
Программа кодирования : mkvmerge v3.4.0 ('Rapunzel') built on May 15 2010 09:38:20
Библиотека кодирования : libebml v0.8.0 + libmatroska v0.9.0

Видео
Идентификатор : 1
Формат : AVC
Формат/Информация : Advanced Video Codec
Профиль формата : High@L4.1
Параметр CABAC формата : Да
Параметр ReFrames формата : 11 кадров
Идентификатор кодека : V_MPEG4/ISO/AVC
Продолжительность : 2 ч. 1 м.
Битрейт : 4093 Кбит/сек
Ширина : 1280 пикселей
Высота : 532 пикселя
Соотношение сторон : 2,40:1
Частота кадров : 23,976 кадра/сек
Цветовое пространство : YUV
Субдискретизация насыщенности : 4:2:0
Битовая глубина : 8 бит
Тип развёртки : Прогрессивная
Бит/(Пиксели*Кадры) : 0.251
Размер потока : 3,48 Гбайт (66%)
Заголовок : Lord of War
Библиотека кодирования : x264 core 108 r1790 8eaf8a6
Настройки программы : cabac=1 / ref=11 / deblock=1:-3:-2 / analyse=0x3:0x133 / me=umh / subme=10 / psy=1 / psy_rd=1.00:0.10 / mixed_ref=1 / me_range=32 / chroma_me=0 / trellis=2 / 8x8dct=1 / cqm=0 / deadzone=21,11 / fast_pskip=0 / chroma_qp_offset=-3 / threads=3 / sliced_threads=0 / nr=0 / decimate=0 / interlaced=0 / constrained_intra=0 / bframes=10 / b_pyramid=2 / b_adapt=2 / b_bias=0 / direct=3 / weightb=1 / open_gop=0 / weightp=2 / keyint=250 / keyint_min=23 / scenecut=40 / intra_refresh=0 / rc_lookahead=40 / rc=crf / mbtree=0 / crf=19.7 / qcomp=0.65 / qpmin=10 / qpmax=51 / qpstep=4 / vbv_maxrate=25000 / vbv_bufsize=31250 / crf_max=0.0 / ip_ratio=1.40 / pb_ratio=1.30 / aq=1:0.90 / nal_hrd=none
Язык : English
Default : Да
Forced : Нет

Аудио #1
Идентификатор : 2
Формат : AC-3
Формат/Информация : Audio Coding 3
Расширение режима : CM (complete main)
Параметр Endianness формата : Big
Идентификатор кодека : A_AC3
Продолжительность : 2 ч. 1 м.
Вид битрейта : Постоянный
Битрейт : 448 Кбит/сек
Каналы : 6 каналов
Расположение каналов : Front: L C R, Side: L R, LFE
Частота : 48,0 КГц
Битовая глубина : 16 бит
Метод сжатия : С потерями
Размер потока : 390 Мбайт (7%)
Заголовок : Дубляж
Язык : Russian
Default : Да
Forced : Нет

Аудио #2
Идентификатор : 3
Формат : AC-3
Формат/Информация : Audio Coding 3
Расширение режима : CM (complete main)
Параметр Endianness формата : Big
Идентификатор кодека : A_AC3
Продолжительность : 2 ч. 1 м.
Вид битрейта : Постоянный
Битрейт : 448 Кбит/сек
Каналы : 6 каналов
Расположение каналов : Front: L C R, Side: L R, LFE
Частота : 48,0 КГц
Битовая глубина : 16 бит
Метод сжатия : С потерями
Размер потока : 390 Мбайт (7%)
Заголовок : Двухголосый (Tycoon)
Язык : Russian
Default : Нет
Forced : Нет

Аудио #3
Идентификатор : 4
Формат : AC-3
Формат/Информация : Audio Coding 3
Расширение режима : CM (complete main)
Параметр Endianness формата : Big
Идентификатор кодека : A_AC3
Продолжительность : 2 ч. 1 м.
Вид битрейта : Постоянный
Битрейт : 448 Кбит/сек
Каналы : 6 каналов
Расположение каналов : Front: L C R, Side: L R, LFE
Частота : 48,0 КГц
Битовая глубина : 16 бит
Метод сжатия : С потерями
Размер потока : 390 Мбайт (7%)
Заголовок : Двухголосый (П.Гланц, И.Королёва)
Язык : Russian
Default : Нет
Forced : Нет

Аудио #4
Идентификатор : 5
Формат : AC-3
Формат/Информация : Audio Coding 3
Расширение режима : CM (complete main)
Параметр Endianness формата : Big
Идентификатор кодека : A_AC3
Продолжительность : 2 ч. 1 м.
Вид битрейта : Постоянный
Битрейт : 640 Кбит/сек
Каналы : 6 каналов
Расположение каналов : Front: L C R, Side: L R, LFE
Частота : 48,0 КГц
Битовая глубина : 16 бит
Метод сжатия : С потерями
Размер потока : 557 Мбайт (10%)
Заголовок : Английский
Язык : English
Default : Нет
Forced : Нет

Текст #1
Идентификатор : 6
Формат : UTF-8
Идентификатор кодека : S_TEXT/UTF8
Идентификатор кодека/Информация : UTF-8 Plain Text
Заголовок : Русские
Язык : Russian
Default : Нет
Forced : Нет

Текст #2
Идентификатор : 7
Формат : UTF-8
Идентификатор кодека : S_TEXT/UTF8
Идентификатор кодека/Информация : UTF-8 Plain Text
Заголовок : Английские
Язык : English
Default : Нет
Forced : Нет

Меню
00:00:00.000 : en:Chapter 1
00:09:16.847 : en:Chapter 2
00:18:29.691 : en:Chapter 3
00:28:53.523 : en:Chapter 4
00:39:34.538 : en:Chapter 5
00:52:09.918 : en:Chapter 6
01:00:29.792 : en:Chapter 7
01:08:51.377 : en:Chapter 8
01:18:14.731 : en:Chapter 9
01:30:43.604 : en:Chapter 10
01:40:02.871 : en:Chapter 11
01:56:00.203 : en:Chapter 12
02:01:42.545 : en:Chapter 13
Свернуть
"Знаете ли Вы, что..."
  • Для съемок сцены со складом автоматов были закуплены реальные автоматы Калашникова, так как они были дешевле чем муляжи.
  • Съемки проходили в ЮАР, Чехии и Нью-Йорке.
  • Ни одна американская студия не захотела связываться с этим проектом. Фильм финансировали иностранные компании.
  • Танки в картине настоящие. Когда-то они принадлежали чешской армии, а сейчас были предназначены для продажи в другую страну. Киношникам пришлось на всякий случай предупредить НАТО, чтобы там, зафиксировав со спутников большое скопление техники, не решили, будто началась война.
  • Эндрю Никкол уверял, что консультантами в фильме выступили настоящие продавцы оружия.
  • Дядя Юрия Орлова - Дмитрий Волков - в фильме был представлен как генерал-майор, но на погонах отчетливо видны две звезды генерал-лейтенанта.
Свернуть
Скриншоты

Изображение
Изображение
Изображение
Изображение
Изображение
Свернуть
Не в сети
Профиль  
Начать новую темуОтветить на тему  [ 1 сообщение ] 
Вы не можете начинать темы
Вы не можете отвечать на сообщения
Вы не можете редактировать свои сообщения
Вы не можете удалять свои сообщения