Правила форума

  • В этом разделе создание новых тем Запрещено.
  • Для создания новых тем пользуйтесь Корневым разделом DVD и HD фильмы.
Начать новую темуОтветить на тему  [ 1 сообщение ] 
Торрент файл
Размер: 2.64 GB • Зарегистрирован: 1 год 8 месяцев • Статус: T Временный релиз
Скачан: 7 раз • Желающих скачать: 0 • Поблагодарили: 1 раз
 Раздают: 1  |  0 KB/s  ]   Качают: 0  |  0 KB/s  ] 
Сообщения
 Добавлено: 2015-03-15 09:31
RG-ELEKTRO
Аватара пользователя
Стаж: 2 года 3 месяца
Сообщений: 7928
Спасибок: 53807
Лайков: 3304
Осквернённый / Desecrated


Изображение


Год выпуска: 2012
Страна: США
Жанр: триллер
Продолжительность: 01:22:18
Перевод: Любительский (двухголосый закадровый) + Оригинальная звуковая дорожка

Режиссёр: Роб Гарсия
В ролях: Хейли Дафф, Вилмер Калдерон, Адам Дэниэлс, Гиб Жерард, Майкл Айронсайд, Пол Джеймс, Гонсало Менендез, Хизер Соссамэн
Описание: Дочка богатенького папашки решает провести веселые выходные на ранчо в изолированной местности. Но вскоре они обнаруживают, что за личиной доброго и услужливого сторожа, скрывается кровожадный и расчетливый зверь.
Изображение Изображение Изображение
Качество: WEB-DL 720p
Формат: MKV
Видео кодек: MPEG-4 AVC
Аудио кодек: AC3
Видео: MPEG-4 AVC, 3928 kb/s, 1280x720
Аудио #1: AC3, 192 kb/s (2 ch) [Любительский (двухголосый закадровый) [DeadSno & den904] ]
Аудио #2: English: AC3, 384 kb/s (6 ch) [Оригинальная звуковая дорожка]
Субтитры: English
Скриншоты
Изображение
Изображение
Изображение
Свернуть


"MI"
Format : Matroska
Format version : Version 4 / Version 2
File size : 2.64 GiB
Duration : 1h 22mn
Overall bit rate : 4 595 Kbps
Encoded date : UTC 2015-03-14 22:06:26
Writing application : mkvmerge v6.1.0 ('Old Devil') built on Mar 4 2013 09:10:42
Writing library : libebml v1.3.0 + libmatroska v1.4.0

Video
ID : 1
Format : AVC
Format/Info : Advanced Video Codec
Format profile : High@L3.1
Format settings, CABAC : No
Format settings, ReFrames : 2 frames
Codec ID : V_MPEG4/ISO/AVC
Duration : 1h 22mn
Bit rate : 3 928 Kbps
Width : 1 280 pixels
Height : 720 pixels
Display aspect ratio : 16:9
Frame rate : 23.976 fps
Color space : YUV
Chroma subsampling : 4:2:0
Bit depth : 8 bits
Scan type : Progressive
Bits/(Pixel*Frame) : 0.178
Stream size : 2.26 GiB (85%)
Language : English
Default : Yes
Forced : No
Color primaries : BT.709-5, BT.1361, IEC 61966-2-4, SMPTE RP177
Transfer characteristics : BT.709-5, BT.1361
Matrix coefficients : BT.709-5, BT.1361, IEC 61966-2-4 709, SMPTE RP177

Audio #1
ID : 2
Format : AC-3
Format/Info : Audio Coding 3
Mode extension : CM (complete main)
Format settings, Endianness : Big
Codec ID : A_AC3
Duration : 1h 22mn
Bit rate mode : Constant
Bit rate : 192 Kbps
Channel(s) : 2 channels
Channel positions : Front: L R
Sampling rate : 48.0 KHz
Bit depth : 16 bits
Compression mode : Lossy
Stream size : 113 MiB (4%)
Language : Russian
Default : Yes
Forced : No

Audio #2
ID : 3
Format : AC-3
Format/Info : Audio Coding 3
Mode extension : CM (complete main)
Format settings, Endianness : Big
Codec ID : A_AC3
Duration : 1h 22mn
Bit rate mode : Constant
Bit rate : 384 Kbps
Channel(s) : 6 channels
Channel positions : Front: L C R, Side: L R, LFE
Sampling rate : 48.0 KHz
Bit depth : 16 bits
Compression mode : Lossy
Stream size : 226 MiB (8%)
Language : English
Default : No
Forced : No

Text
ID : 4
Format : UTF-8
Codec ID : S_TEXT/UTF8
Codec ID/Info : UTF-8 Plain Text
Language : English
Default : No
Forced : No

Menu
00:00:00.000 : en:1
00:09:37.000 : en:2
00:18:47.000 : en:3
00:26:20.000 : en:4
00:35:18.000 : en:5
00:45:15.000 : en:6
00:54:01.000 : en:7
01:01:38.000 : en:8
01:10:40.000 : en:9
01:18:13.000 : en:10
Свернуть


Изображение Изображение
_________________
Не ищите меня в "ВКонтакте", в "Одноклассниках" меня нет - я на трекерах сижу!
Не в сети
Профиль  
Начать новую темуОтветить на тему  [ 1 сообщение ] 
Вы не можете начинать темы
Вы не можете отвечать на сообщения
Вы не можете редактировать свои сообщения
Вы не можете удалять свои сообщения