Правила форума

  • В этом разделе создание новых тем Запрещено.
  • Для создания новых тем пользуйтесь Корневым разделом DVD и HD фильмы.
Начать новую темуОтветить на тему  [ 1 сообщение ] 
Торрент файл
Размер: 7.95 GB • Зарегистрирован: 5 лет 9 месяцев • Статус: Проверено
Скачан: 50 раз • Желающих скачать: 0 • Поблагодарили: 9 раз
 Раздают: 0  |  0 KB/s  ]   Качают: 0  |  0 KB/s  ] 
 Полного источника не было 2 года 6 месяцев 
Сообщения
 Добавлено: 2011-03-03 09:39
Модератор релиз-группы
Аватара пользователя
Стаж: 9 лет 1 месяц
Возраст: 97
Сообщений: 11659
Спасибок: 6532
Лайков: 269
Основной инстинкт 2: Жажда риска / Basic Instinct 2

Изображение


Год выпуска: 2006
Страна: США, Германия, Великобритания, Испания
Слоган: «Всё интригующее начинается в твоих мозгах»
Жанр: Триллер,Криминал, Детектив
Продолжительность: 01:50:00
Перевод: Профессиональный (дубляж)
Дублеры: Анна Каменкова,Константин Карасик,Леонид Белозорович,Всеволод Кузнецов,Александр Новиков
Оригинальная звуковая дорожка
Субтитры: Русские

Режиссёр: Майкл Кейтон-Джоунс / Michael Caton-Jones
В ролях: Шэрон Стоун, Дэвид Морисси, Шарлотта Рэмплинг, Дэвид Тьюлис, Хью Дэнси, Стэн Коллимор, Нил Мэскелл, Жан Чаппель, Теренс Харви, Эллен Томас, Марк Сэнгстер, Тим Беррингтон, Индира Варма, Хиткот Уильямс, Флора Монтгомери, Ката Добо, Айэйн Робертсон
Описание: На писательницу Кэтрин Трэммел вновь падает подозрение в причастности к преступлению. Скотланд-Ярд отряжает обращается к доктору Майклу Глассу за помощью в профессиональном заключении о состоянии психического здоровья Кэтрин. Но Гласс, как когда-то детектив Каррен, попадает под чары роковой женщины.


Изображение 4.967 голосов:2 839
Изображение

Качество: BDRip, 1080p
Формат: MKV
Видео кодек: H264 (AVC)
Аудио кодек: AC3 (Dolby Digital)
Видео: 1920x800 (2.42:1); AVC MPEG-4; ~ 9250 Кбит/сек; 23,976 fps
Аудио #1: Russian AC3, 448 kbps, 48.0 kHz, 6ch [Профессиональный (дубляж)]
Аудио #2: English AC3, 640 kbps, 48.0 kHz, 6ch [Оригинальная звуковая дорожка]
Субтитры: Русские
Скриншоты
Изображение

Изображение

Изображение

Изображение

Изображение
Свернуть

Mi
Format : Matroska
File size : 7.95 GiB
Duration : 1h 50mn
Overall bit rate : 10.3 Mbps
Encoded date : UTC 2008-07-09 21:28:48
Writing application : mkvmerge v2.2.0 ('Turn It On Again') built on May 15 2008 19:09:07
Writing library : libebml v0.7.7 + libmatroska v0.8.1

Video
ID : 1
Format : AVC
Format/Info : Advanced Video Codec
Format profile : High@L4.1
Format settings, CABAC : Yes
Format settings, ReFrames : 5 frames
Codec ID : V_MPEG4/ISO/AVC
Duration : 1h 50mn
Bit rate : 9 250 Kbps
Width : 1 920 pixels
Height : 800 pixels
Display aspect ratio : 2.40:1
Frame rate : 23.976 fps
Color space : YUV
Chroma subsampling : 4:2:0
Bit depth : 8 bits
Scan type : Progressive
Bits/(Pixel*Frame) : 0.251
Stream size : 6.95 GiB (87%)
Title : Dasic Instinct 2
Writing library : x264 core 60 r899M f8428ed
Encoding settings : cabac=1 / ref=5 / deblock=1:-3:-3 / analyse=0x3:0x113 / me=umh / subme=7 / rdcmp=psy / brdo=1 / mixed_ref=1 / me_range=32 / chroma_me=1 / trellis=0 / 8x8dct=1 / cqm=0 / deadzone=8,2 / chroma_qp_offset=0 / threads=3 / nr=0 / decimate=0 / mbaff=0 / bframes=3 / b_pyramid=1 / b_adapt=1 / b_bias=0 / direct=3 / wpredb=1 / bime=1 / keyint=480 / keyint_min=24 / scenecut=40(pre) / rc=2pass / bitrate=9250 / ratetol=2.0 / rceq='blurCplx^(1-qComp)' / qcomp=1.00 / qpmin=10 / qpmax=51 / qpstep=4 / cplxblur=20.0 / qblur=0.5 / vbv_maxrate=50000 / vbv_bufsize=14000 / ip_ratio=1.40 / pb_ratio=1.30 / aq=2:1.00
Language : Russian

Audio #1
ID : 2
Format : AC-3
Format/Info : Audio Coding 3
Mode extension : CM (complete main)
Codec ID : A_AC3
Duration : 1h 50mn
Bit rate mode : Constant
Bit rate : 448 Kbps
Channel(s) : 6 channels
Channel positions : Front: L C R, Side: L R, LFE
Sampling rate : 48.0 KHz
Bit depth : 16 bits
Compression mode : Lossy
Stream size : 352 MiB (4%)
Title : Dasic Instinct 2
Language : Russian

Audio #2
ID : 3
Format : AC-3
Format/Info : Audio Coding 3
Mode extension : CM (complete main)
Codec ID : A_AC3
Duration : 1h 50mn
Bit rate mode : Constant
Bit rate : 640 Kbps
Channel(s) : 6 channels
Channel positions : Front: L C R, Side: L R, LFE
Sampling rate : 48.0 KHz
Bit depth : 16 bits
Compression mode : Lossy
Stream size : 504 MiB (6%)
Title : Dasic Instinct 2
Language : English

Text
ID : 4
Format : UTF-8
Codec ID : S_TEXT/UTF8
Codec ID/Info : UTF-8 Plain Text
Title : Dasic Instinct 2
Language : Russian
Свернуть
_________________
Изображение
Не в сети
Профиль  
Начать новую темуОтветить на тему  [ 1 сообщение ] 
Вы не можете начинать темы
Вы не можете отвечать на сообщения
Вы не можете редактировать свои сообщения
Вы не можете удалять свои сообщения