Правила форума

  • В этом разделе создание новых тем Запрещено.
  • Для создания новых тем пользуйтесь Корневым разделом DVD и HD фильмы.
Начать новую темуОтветить на тему  [ 1 сообщение ] 
Торрент файл
Размер: 9.14 GB • Зарегистрирован: 5 лет 9 месяцев • Статус: Проверено
Скачан: 80 раз • Желающих скачать: 0 • Поблагодарили: 8 раз
 Раздают: 0  |  0 KB/s  ]   Качают: 0  |  0 KB/s  ] 
 Полного источника не было 3 года 2 месяца 
Сообщения
 Добавлено: 2011-03-02 17:17
Модератор релиз-группы
Аватара пользователя
Стаж: 9 лет 1 месяц
Возраст: 97
Сообщений: 11659
Спасибок: 6532
Лайков: 269
Основной инстинкт / Basic Instinct

Изображение


Год выпуска: 1992
Страна: США, Франция
Слоган: «Flesh seduces. Passion kills.»
Жанр: Триллер, детектив
Продолжительность: 02:08:14
Перевод: Профессиональный (двухголосый закадровый)
Оригинальная звуковая дорожка

Режиссёр: Пол Верховен
В ролях: Майкл Дуглас, Шэрон Стоун, Джордж Дзундза, Джинн Трипплхорн, Дэнис Арндт, Лейлани Сарелл, Брюс А. Янг, Челци Росс, Дороти Мэлоун, Вейн Найт
Описание: Детектив Ник Каррен ведет расследование по делу об извращенном убийстве на сексуальной почве. Подозрение падает на подругу убитого Кэтрин – писательницу, автора шокирующих романов, которая в своей последней книге подробно описала абсолютно аналогичное преступление.
Но обворожительная, неимоверно сексуальная писательница, обладает удивительной способностью манипулировать мужчинами, пробудив в них один из самых основных инстинктов.
Мировая премьера: 20 марта 1992
Бюджет: $49 000 000
Кассовые сборы: $352 927 224
Изображение 7.765 голосов:9 940
Релиз на DVD: 29 июня 2010, «Юниверсал Пикчерс Рус»

Изображение
Качество: BDRip, 1080p
Формат: MKV
Видео кодек: H264 (AVC)
Аудио кодек: AC3 (Dolby Digital)
Видео: 1920x800, 9111 Kbps, 23.976 fps
Аудио #1: Русский AC3 5.1, 48 KHz, 448 Kbps [Профессиональный (двухголосый закадровый)]
Аудио #2: Английский AC3 5.1, 48 KHz, 640 Kbps [Оригинальная звуковая дорожка]
Скриншоты
Изображение

Изображение

Изображение

Изображение

Изображение
Свернуть

Mi
Format : Matroska
File size : 9.14 GiB
Duration : 2h 8mn
Overall bit rate : 10.2 Mbps
Movie name : Basic.Instinct.BDRip.1080p.x264.
Encoded date : UTC 2007-09-24 15:52:06
Writing application : mkvmerge v2.0.2 ('You're My Flame') built on Jun 25 2007 12:41:14
Writing library : libebml v0.7.7 + libmatroska v0.8.1

Video
ID : 1
Format : AVC
Format/Info : Advanced Video Codec
Format profile : Main@L5.1
Format settings, CABAC : Yes
Format settings, ReFrames : 7 frames
Codec ID : V_MPEG4/ISO/AVC
Duration : 2h 8mn
Bit rate : 9 112 Kbps
Width : 1 920 pixels
Height : 800 pixels
Display aspect ratio : 2.40:1
Frame rate : 23.976 fps
Color space : YUV
Chroma subsampling : 4:2:0
Bit depth : 8 bits
Scan type : Progressive
Bits/(Pixel*Frame) : 0.247
Stream size : 7.98 GiB (87%)
Title : 1920x800, x264 (HDTrackerr.ru)
Writing library : x264 core 54 svn-654
Encoding settings : cabac=1 / ref=4 / deblock=1:0:0 / analyse=0x1:0 / me=hex / subme=6 / brdo=1 / mixed_ref=1 / me_range=16 / chroma_me=1 / trellis=0 / 8x8dct=0 / cqm=0 / deadzone=21,11 / chroma_qp_offset=0 / threads=2 / nr=0 / decimate=1 / mbaff=0 / bframes=3 / b_pyramid=1 / b_adapt=1 / b_bias=0 / direct=1 / wpredb=1 / bime=1 / keyint=250 / keyint_min=25 / scenecut=40(pre) / rc=2pass / bitrate=9112 / ratetol=1.0 / rceq='blurCplx^(1-qComp)' / qcomp=0.60 / qpmin=10 / qpmax=51 / qpstep=4 / cplxblur=20.0 / qblur=0.5 / ip_ratio=1.40 / pb_ratio=1.30
Language : English

Audio #1
ID : 2
Format : AC-3
Format/Info : Audio Coding 3
Mode extension : CM (complete main)
Codec ID : A_AC3
Duration : 2h 8mn
Bit rate mode : Constant
Bit rate : 448 Kbps
Channel(s) : 6 channels
Channel positions : Front: L C R, Side: L R, LFE
Sampling rate : 48.0 KHz
Bit depth : 16 bits
Compression mode : Lossy
Stream size : 411 MiB (4%)
Title : AC3, 6ch 448kbps
Language : Russian

Audio #2
ID : 3
Format : AC-3
Format/Info : Audio Coding 3
Mode extension : CM (complete main)
Codec ID : A_AC3
Duration : 2h 8mn
Bit rate mode : Constant
Bit rate : 640 Kbps
Channel(s) : 6 channels
Channel positions : Front: L C R, Side: L R, LFE
Sampling rate : 48.0 KHz
Bit depth : 16 bits
Compression mode : Lossy
Stream size : 587 MiB (6%)
Title : AC3, 6ch 640kbps
Language : English

Свернуть
_________________
Изображение
Не в сети
Профиль  
Начать новую темуОтветить на тему  [ 1 сообщение ] 
Вы не можете начинать темы
Вы не можете отвечать на сообщения
Вы не можете редактировать свои сообщения
Вы не можете удалять свои сообщения
cron