Правила форума

  • В этом разделе создание новых тем Запрещено.
  • Для создания новых тем пользуйтесь Корневым разделом DVD и HD фильмы.
Начать новую темуОтветить на тему  [ 1 сообщение ] 
Торрент файл
Размер: 2.99 GB • Зарегистрирован: 1 год 6 месяцев • Статус: T Временный релиз
Скачан: 143 раза • Желающих скачать: 0 • Поблагодарили: 32 раза
 Раздают: 1  |  0 KB/s  ]   Качают: 0  |  0 KB/s  ] 
Сообщения
 Добавлено: 2015-05-22 07:28
RG-ELEKTRO
Аватара пользователя
Стаж: 2 года 3 месяца
Сообщений: 7928
Спасибок: 53784
Лайков: 3304
Особо опасна / Barely Lethal


«Обычная жизнь спецагента»



Изображение


Выпущено: США
Год выхода: 2015
Жанр: Боевик, комедия, приключения
Продолжительность: 01:33:18
Озвучивание: Дублированное [iTunes]
Режиссер: Кайл Ньюман
В ролях: Хейли Стайнфелд, Сэмюэл Л. Джексон, Джессика Альба, Софи Тернер, Джейми Кинг, Дав Камерон, Дэн Фоглер, Рэйчел Харрис, Томас Манн, Александра Кросни
О фильме: Меган спецагент международного класса. В свои шестнадцать она владеет карате, стреляет без промаха и способна обезвредить взрослого вооруженного мужчину. Но Меган мечтает о жизни простого тинейджера с тусовками и дискотеками. И судьба предоставляет ей такую возможность, но очень скоро супердевушка понимает, что в школе бывает опаснее, чем на на самой сложной спецоперации.

Изображение Изображение Изображение

Формат: MKV
Качество: WEB-DL 720p
Видео: MPEG-4 AVC, 3883 kb/s, 1280x690
Аудио: AC3, 384 Kb/s (6 ch)

"MI"
General
Unique ID : 251750732574369752435388150260214808767 (0xBD656D6C9E64A12E8D32C5FE918040BF)
Complete name : D:\фильмы\Особо опасна.2015.D.WEB-DL.720p.mkv
Format : Matroska
Format version : Version 4 / Version 2
File size : 2.99 GiB
Duration : 1h 38mn
Overall bit rate : 4 354 Kbps
Encoded date : UTC 2015-05-21 18:08:30
Writing application : mkvmerge v6.9.1 ('Blue Panther') 64bit built on Apr 18 2014 18:23:38
Writing library : libebml v1.3.0 + libmatroska v1.4.1

Video
ID : 1
Format : AVC
Format/Info : Advanced Video Codec
Format profile : High@L3.1
Format settings, CABAC : No
Format settings, ReFrames : 2 frames
Codec ID : V_MPEG4/ISO/AVC
Duration : 1h 38mn
Bit rate : 3 883 Kbps
Width : 1 280 pixels
Height : 690 pixels
Display aspect ratio : 1.85:1
Frame rate mode : Constant
Frame rate : 24.000 fps
Color space : YUV
Chroma subsampling : 4:2:0
Bit depth : 8 bits
Scan type : Progressive
Bits/(Pixel*Frame) : 0.183
Stream size : 2.66 GiB (89%)
Language : English
Default : Yes
Forced : No
Color primaries : BT.709
Transfer characteristics : BT.709
Matrix coefficients : BT.709

Audio
ID : 2
Format : AC-3
Format/Info : Audio Coding 3
Mode extension : CM (complete main)
Format settings, Endianness : Big
Codec ID : A_AC3
Duration : 1h 38mn
Bit rate mode : Constant
Bit rate : 384 Kbps
Channel(s) : 6 channels
Channel positions : Front: L C R, Side: L R, LFE
Sampling rate : 48.0 KHz
Bit depth : 16 bits
Compression mode : Lossy
Stream size : 270 MiB (9%)
Language : Russian
Default : Yes
Forced : No

Menu
00:00:00.000 : en:Глава 1
00:05:45.000 : en:Глава 2
00:12:35.000 : en:Глава 3
00:17:04.000 : en:Глава 4
00:22:10.000 : en:Глава 5
00:25:36.000 : en:Глава 6
00:33:21.000 : en:Глава 7
00:38:29.000 : en:Глава 8
00:43:41.000 : en:Глава 9
00:49:00.000 : en:Глава 10
00:54:32.000 : en:Глава 11
01:00:11.000 : en:Глава 12
01:03:19.000 : en:Глава 13
01:07:10.000 : en:Глава 14
01:12:31.000 : en:Глава 15
01:17:17.000 : en:Глава 16
01:22:13.000 : en:Глава 17
01:29:46.000 : en:Глава 18

Свернуть

"Скриншоты"
Изображение
Изображение
Изображение

Свернуть

Изображение Изображение

_________________
Не ищите меня в "ВКонтакте", в "Одноклассниках" меня нет - я на трекерах сижу!
 Anastasia06 нравится это.
Не в сети
Профиль  
Начать новую темуОтветить на тему  [ 1 сообщение ] 
Вы не можете начинать темы
Вы не можете отвечать на сообщения
Вы не можете редактировать свои сообщения
Вы не можете удалять свои сообщения