Правила форума

  • В этом разделе создание новых тем Запрещено.
  • Для создания новых тем пользуйтесь Корневым разделом DVD и HD фильмы.
Начать новую темуОтветить на тему  [ Сообщений: 4 ] 
Торрент файл
Размер: 20.13 GB • Зарегистрирован: 3 года 11 месяцев • Статус: Проверено
Скачан: 67 раз • Желающих скачать: 0 • Поблагодарили: 25 раз
 Раздают: 0  |  0 KB/s  ]   Качают: 0  |  0 KB/s  ] 
 Полного источника не было 2 года 10 месяцев 
Сообщения
 Добавлено: 2012-12-15 19:01
Модератор релиз-группы
Аватара пользователя
Стаж: 9 лет 1 месяц
Возраст: 97
Сообщений: 11659
Спасибок: 6531
Лайков: 269
Особо опасны / Savages

«Молодые, красивые, дерзкие»

Изображение


Год выпуска: 2012
Страна: США
Жанр: триллер, драма, криминал
Продолжительность: 02:21:10
Перевод: Авторский (одноголосый закадровый) Ю.Сербин
Авторский (одноголосый закадровый) А.Гаврилов
Одноголосый (закадровый) А. Дасевич по переводу ak79, без цензуры
Оригинальная звуковая дорожка

Режиссер: Оливер Стоун
Сценарий: Дон Уинслоу, Шейн Салерно, Оливер Стоун
Продюсер: Мориц Борман, Эрик Копелофф, Тодд Арноу, Ивэн Бейтс, Шейн Салерно
Оператор: Дэниэл Миндел
Композитор: Адам Питерс

В ролях: Тейлор Китч, Блейк Лайвли, Аарон Тейлор-Джонсон, Джон Траволта, Бенисио Дель Торо, Сальма Хайек, Эмиль Хирш, Демиан Бишир, Антонио Джарамилло, Хоакин Косио

Описание: Молодые миллионеры Бен и Чон ведут дела на побережье Калифорнии. Бен - выдающийся ботаник и талантливый бизнесмен, Чон - мастер возвращения долгов и борьбы с конкурентами. В их работе много сложных моментов, ведь они выращивают лучшую в мире траву. Особо серьезные проблемы решает знакомый агент ФБР.
Но с одной не сможет помочь даже он. Сверхприбыльным бизнесом заинтересовался мексиканский картель. Его возглавляет прекрасная Елена, и она нашла главную слабость друзей - и Бен, и Чон принадлежат одной девушке. Ради прелестной О. они готовы на все. Любовь делает нас особо опасными.
Изображение
Качество: BDRip 1080p
Формат: MKV
Видео: AVC,1920x800,14400 Kbps,23.976 fps
Аудио 1: Russian: 48 kHz, DTS, 3/2 (L,C,R,l,r) LFE ch, ~1536.00 kbps avg |Ю.Сербин|
Аудио 2: Russian: 48 kHz, DTS, 3/2 (L,C,R,l,r) LFE ch, ~1536.00 kbps avg |А.Гаврилов|
Аудио 3: Russian: 48 kHz, DTS, 3/2 (L,C,R,l,r) LFE ch, ~1536.00 kbps avg |А. Дасевич|
Аудио 4: English: 48 kHz, DTS, 3/2 (L,C,R,l,r) LFE ch, ~1536.00 kbps |Original|
Субтитры: Russian, Eng.
скриншоты
Изображение

Изображение

Изображение
Свернуть
Mi
Complete name : D:\Savages.2012.BDRip.BluRay.DTS.x264-Talian-.mkv
Format : Matroska
Format version : Version 2
File size : 20.1 GiB
Duration : 2h 21mn
Overall bit rate : 20.4 Mbps
Movie name : -Talian-
Encoded date : UTC 2012-12-14 19:51:35
Writing application : mkvmerge v5.7.0 ('The Whirlwind') built on Jul 8 2012 20:08:51
Writing library : libebml v1.2.3 + libmatroska v1.3.0

Video
ID : 1
Format : AVC
Format/Info : Advanced Video Codec
Format profile : High@L4.1
Format settings, CABAC : Yes
Format settings, ReFrames : 5 frames
Codec ID : V_MPEG4/ISO/AVC
Duration : 2h 21mn
Bit rate : 14.4 Mbps
Width : 1 920 pixels
Height : 800 pixels
Display aspect ratio : 2.40:1
Frame rate mode : Constant
Frame rate : 23.976 fps
Color space : YUV
Chroma subsampling : 4:2:0
Bit depth : 8 bits
Scan type : Progressive
Bits/(Pixel*Frame) : 0.390
Stream size : 13.8 GiB (68%)
Title : Savages.2012.BDRip.BluRay.DTS.x264
Writing library : x264 core 116 r2074 2641b9e
Encoding settings : cabac=1 / ref=5 / deblock=1:-3:-3 / analyse=0x3:0x133 / me=umh / subme=11 / psy=1 / psy_rd=1.00:0.50 / mixed_ref=1 / me_range=48 / chroma_me=1 / trellis=2 / 8x8dct=1 / cqm=0 / deadzone=21,11 / fast_pskip=1 / chroma_qp_offset=-4 / threads=12 / sliced_threads=0 / nr=0 / decimate=1 / interlaced=0 / bluray_compat=0 / constrained_intra=0 / bframes=8 / b_pyramid=2 / b_adapt=2 / b_bias=0 / direct=3 / weightb=1 / open_gop=0 / weightp=2 / keyint=250 / keyint_min=10 / scenecut=40 / intra_refresh=0 / rc_lookahead=40 / rc=2pass / mbtree=1 / bitrate=14375 / ratetol=1.0 / qcomp=0.70 / qpmin=10 / qpmax=51 / qpstep=4 / cplxblur=20.0 / qblur=0.5 / ip_ratio=1.40 / aq=1:1.00
Language : English
Default : No
Forced : No

Audio #1
ID : 2
Format : DTS
Format/Info : Digital Theater Systems
Codec ID : A_DTS
Duration : 2h 21mn
Bit rate mode : Constant
Bit rate : 1 510 Kbps
Channel(s) : 6 channels
Channel positions : Front: L C R, Side: L R, LFE
Sampling rate : 48.0 KHz
Bit depth : 24 bits
Compression mode : Lossy
Stream size : 1.49 GiB (7%)
Title : AVO - Ю.Сербин
Language : Russian
Default : Yes
Forced : No

Audio #2
ID : 3
Format : DTS
Format/Info : Digital Theater Systems
Codec ID : A_DTS
Duration : 2h 21mn
Bit rate mode : Constant
Bit rate : 1 510 Kbps
Channel(s) : 6 channels
Channel positions : Front: L C R, Side: L R, LFE
Sampling rate : 48.0 KHz
Bit depth : 24 bits
Compression mode : Lossy
Stream size : 1.49 GiB (7%)
Title : AVO- А.Гаврилов)
Language : Russian
Default : No
Forced : No

Audio #3
ID : 4
Format : DTS
Format/Info : Digital Theater Systems
Codec ID : A_DTS
Duration : 2h 21mn
Bit rate mode : Constant
Bit rate : 1 510 Kbps
Channel(s) : 6 channels
Channel positions : Front: L C R, Side: L R, LFE
Sampling rate : 48.0 KHz
Bit depth : 24 bits
Compression mode : Lossy
Stream size : 1.49 GiB (7%)
Title : VO-Дасевич
Language : Russian
Default : No
Forced : No

Audio #4
ID : 5
Format : DTS
Format/Info : Digital Theater Systems
Codec ID : A_DTS
Duration : 2h 21mn
Bit rate mode : Constant
Bit rate : 1 510 Kbps
Channel(s) : 6 channels
Channel positions : Front: L C R, Side: L R, LFE
Sampling rate : 48.0 KHz
Bit depth : 24 bits
Compression mode : Lossy
Delay relative to video : 11ms
Stream size : 1.49 GiB (7%)
Title : Original
Language : English
Default : No
Forced : No

Text #1
ID : 6
Format : UTF-8
Codec ID : S_TEXT/UTF8
Codec ID/Info : UTF-8 Plain Text
Title : Sub-forced
Language : Russian
Default : Yes
Forced : No

Text #2
ID : 7
Format : UTF-8
Codec ID : S_TEXT/UTF8
Codec ID/Info : UTF-8 Plain Text
Title : Sub
Language : Russian
Default : No
Forced : No

Text #3
ID : 8
Format : UTF-8
Codec ID : S_TEXT/UTF8
Codec ID/Info : UTF-8 Plain Text
Title : Sub-SDH
Language : English
Default : No
Forced : No

Menu
00:00:00.000 : en:Chapter 00
00:06:42.152 : en:Chapter 01
00:13:40.737 : en:Chapter 02
00:20:58.215 : en:Chapter 03
00:24:36.934 : en:Chapter 04
00:31:40.899 : en:Chapter 05
00:41:50.257 : en:Chapter 06
00:48:33.869 : en:Chapter 07
00:57:19.519 : en:Chapter 08
01:02:04.554 : en:Chapter 09
01:11:21.819 : en:Chapter 10
01:19:53.747 : en:Chapter 11
01:28:03.236 : en:Chapter 12
01:36:29.867 : en:Chapter 13
01:43:49.849 : en:Chapter 14
01:48:41.348 : en:Chapter 15
01:56:37.032 : en:Chapter 16
02:02:58.496 : en:Chapter 17
02:11:47.024 : en:Chapter 18
02:16:49.910 : en:Chapter 19

Свернуть
_________________
Изображение


Последний раз редактировалось Артурыч 2012-12-15 21:22, всего редактировалось 1 раз.
Не в сети
Профиль  
 Добавлено: 2012-12-15 21:17 (спустя 2 часа 16 минут)
Модератор
Аватара пользователя
Стаж: 9 лет 1 месяц
Возраст: 29
Сообщений: 1620
Спасибок: 1589
Лайков: 11
20 многовато че то, а поменьше рип будет?)
_________________
ИзображениеИзображение
Core i5 4670K 4 ГГц / MSI Z87 G45 Gaming / 2x ASUS GTX660 2 Gb - SLI / 16 Gb DDR3 CORSAIR 1600 Mhz / Microlab 5.1 X15 / SSD A-Data 128 Gb + Seagate 1 Tb + Seagate 1 Tb / Philips 24'(1920x1080) + LG 22'(1680x1050)
Квас как танк?
Изображение
Свернуть
Не в сети
Профиль  
 Добавлено: 2012-12-16 08:13 (спустя 10 часов)
Аватара пользователя
Стаж: 6 лет 6 месяцев
Возраст: 36
Сообщений: 2
Спасибок: 147
А как фильм подскажите? Стоит скачивать и смотреть?
_________________
Изображение
Не в сети
Профиль  
 Добавлено: 2012-12-18 13:17 (спустя 2 дня 5 часов)
Стаж: 5 лет 3 месяца
Сообщений: 150
Лайков: 1
Я скачал и пожалел!!!Такая хренотень!!!!
Не в сети
Профиль  
Начать новую темуОтветить на тему  [ Сообщений: 4 ] 
Вы не можете начинать темы
Вы не можете отвечать на сообщения
Вы не можете редактировать свои сообщения
Вы не можете удалять свои сообщения