Правила форума

  • В этом разделе создание новых тем Запрещено.
  • Для создания новых тем пользуйтесь Корневым разделом DVD и HD фильмы.
Начать новую темуОтветить на тему  [ Сообщений: 2 ] 
Торрент файл
Размер: 16.04 GB • Зарегистрирован: 3 года 10 месяцев • Статус: Проверено
Скачан: 308 раз • Желающих скачать: 0 • Поблагодарили: 70 раз
 Раздают: 1  |  0 KB/s  ]   Качают: 0  |  0 KB/s  ] 
Сообщения
 Добавлено: 2013-01-23 20:44
Аватара пользователя
Стаж: 9 лет 1 месяц
Сообщений: 7932
Спасибок: 122150
Лайков: 1191
Особо опасны / Savages

«Молодые, красивые, дерзкие»

Изображение


Год выпуска: 2012
Страна: Изображение США
Жанр: триллер, драма, криминал
Продолжительность: 02:21:10
Субтитры: Русские, английские
Перевод: Профессиональный (полное дублирование)[лицензия]


Режиссёр: Оливер Стоун
Сценарист: Дон Уинслоу, Шейн Салерно, Оливер Стоун
Продюсер: Мориц Борман, Эрик Копелофф, Тодд Арноу
Оператор: Дэниэл Миндел
Композитор: Адам Питерс

В ролях: Тейлор Китч, Блейк Лайвли, Аарон Тейлор-Джонсон, Джон Траволта, Бенисио Дель Торо, Сальма Хайек, Эмиль Хирш, Демиан Бишир, Антонио Джарамилло, Хоакин Косио

Описание: Молодые миллионеры Бен и Чон ведут дела на побережье Калифорнии. Бен - выдающийся ботаник и талантливый бизнесмен, Чон - мастер возвращения долгов и борьбы с конкурентами. В их работе много сложных моментов, ведь они выращивают лучшую в мире траву. Особо серьезные проблемы решает знакомый агент ФБР.
Но с одной не сможет помочь даже он. Сверхприбыльным бизнесом заинтересовался мексиканский картель. Его возглавляет прекрасная Елена, и она нашла главную слабость друзей - и Бен, и Чон принадлежат одной девушке. Ради прелестной О. они готовы на все. Любовь делает нас особо опасными.


Изображение Изображение

Качество: BDRip (1080p)
Формат: Matroska
Видео: MPEG-4 AVC, 14.4 Мбит/с, 1920x800, 23.976 fps
Аудио №1: Русский AC3, 384 Кбит/сек, 6 ch
Аудио №2: Английский DTS 1509 Кбит/сек (6ch), 48,0 КГц, 16 бит

MediaInfo
Общее
Уникальный идентификатор : 181880642332759783995254634206992482428 (0x88D4F00271DE5FDFBAAE32978B7F407C)
Полное имя : H:\Savages.BDRip.1080p.nntt.org.mkv
Формат : Matroska
Версия формата : Version 2
Размер файла : 16,0 Гбайт
Продолжительность : 2 ч. 21 м.
Общий поток : 16,3 Мбит/сек
Название фильма : -Talian-
Дата кодирования : UTC 2013-01-23 17:51:27
Программа кодирования : mkvmerge v5.7.0 ('The Whirlwind') built on Jul 29 2012 15:12:35
Библиотека кодирования : libebml v1.2.3 + libmatroska v1.3.0

Видео
Идентификатор : 1
Формат : AVC
Формат/Информация : Advanced Video Codec
Профиль формата : High@L4.1
Параметр CABAC формата : Да
Параметр ReFrames формата : 5 кадров
Идентификатор кодека : V_MPEG4/ISO/AVC
Продолжительность : 2 ч. 21 м.
Битрейт : 14,4 Мбит/сек
Ширина : 1920 пикселей
Высота : 800 пикселей
Соотношение сторон : 2,40:1
Режим частоты кадров : Постоянный
Частота кадров : 23,976 кадра/сек
Цветовое пространство : YUV
Субдискретизация насыщенности : 4:2:0
Битовая глубина : 8 бит
Тип развёртки : Прогрессивная
Бит/(Пиксели*Кадры) : 0.390
Размер потока : 13,9 Гбайт (86%)
Заголовок : Savages.2012.BDRip.BluRay.DTS.x264
Библиотека кодирования : x264 core 116 r2074 2641b9e
Настройки программы : cabac=1 / ref=5 / deblock=1:-3:-3 / analyse=0x3:0x133 / me=umh / subme=11 / psy=1 / psy_rd=1.00:0.50 / mixed_ref=1 / me_range=48 / chroma_me=1 / trellis=2 / 8x8dct=1 / cqm=0 / deadzone=21,11 / fast_pskip=1 / chroma_qp_offset=-4 / threads=12 / sliced_threads=0 / nr=0 / decimate=1 / interlaced=0 / bluray_compat=0 / constrained_intra=0 / bframes=8 / b_pyramid=2 / b_adapt=2 / b_bias=0 / direct=3 / weightb=1 / open_gop=0 / weightp=2 / keyint=250 / keyint_min=10 / scenecut=40 / intra_refresh=0 / rc_lookahead=40 / rc=2pass / mbtree=1 / bitrate=14375 / ratetol=1.0 / qcomp=0.70 / qpmin=10 / qpmax=51 / qpstep=4 / cplxblur=20.0 / qblur=0.5 / ip_ratio=1.40 / aq=1:1.00
Язык : English
Default : Нет
Forced : Нет

Аудио #1
Идентификатор : 2
Формат : AC-3
Формат/Информация : Audio Coding 3
Расширение режима : CM (complete main)
Параметр Endianness формата : Big
Идентификатор кодека : A_AC3
Продолжительность : 2 ч. 21 м.
Вид битрейта : Постоянный
Битрейт : 384 Кбит/сек
Каналы : 6 каналов
Расположение каналов : Front: L C R, Side: L R, LFE
Частота : 48,0 КГц
Битовая глубина : 16 бит
Метод сжатия : С потерями
Размер потока : 388 Мбайт (2%)
Язык : Russian
Default : Да
Forced : Да

Аудио #2
Идентификатор : 3
Формат : DTS
Формат/Информация : Digital Theater Systems
Режим : 16
Параметр Endianness формата : Big
Идентификатор кодека : A_DTS
Продолжительность : 2 ч. 21 м.
Вид битрейта : Постоянный
Битрейт : 1509 Кбит/сек
Каналы : 6 каналов
Расположение каналов : Front: L C R, Side: L R, LFE
Частота : 48,0 КГц
Битовая глубина : 24 бит
Метод сжатия : С потерями
Задержка видео : 11 мс.
Размер потока : 1,49 Гбайт (9%)
Заголовок : Original
Язык : English
Default : Нет
Forced : Нет

Текст #1
Идентификатор : 4
Формат : UTF-8
Идентификатор кодека : S_TEXT/UTF8
Идентификатор кодека/Информация : UTF-8 Plain Text
Заголовок : Sub-forced
Язык : Russian
Default : Да
Forced : Нет

Текст #2
Идентификатор : 5
Формат : UTF-8
Идентификатор кодека : S_TEXT/UTF8
Идентификатор кодека/Информация : UTF-8 Plain Text
Заголовок : Sub
Язык : Russian
Default : Нет
Forced : Нет

Текст #3
Идентификатор : 6
Формат : UTF-8
Идентификатор кодека : S_TEXT/UTF8
Идентификатор кодека/Информация : UTF-8 Plain Text
Заголовок : Sub-SDH
Язык : English
Default : Нет
Forced : Нет

Меню
00:00:00.000 : en:Chapter 00
00:06:42.152 : en:Chapter 01
00:13:40.737 : en:Chapter 02
00:20:58.215 : en:Chapter 03
00:24:36.934 : en:Chapter 04
00:31:40.899 : en:Chapter 05
00:41:50.257 : en:Chapter 06
00:48:33.869 : en:Chapter 07
00:57:19.519 : en:Chapter 08
01:02:04.554 : en:Chapter 09
01:11:21.819 : en:Chapter 10
01:19:53.747 : en:Chapter 11
01:28:03.236 : en:Chapter 12
01:36:29.867 : en:Chapter 13
01:43:49.849 : en:Chapter 14
01:48:41.348 : en:Chapter 15
01:56:37.032 : en:Chapter 16
02:02:58.496 : en:Chapter 17
02:11:47.024 : en:Chapter 18
02:16:49.910 : en:Chapter 19
Свернуть
Знаете ли вы, что...
Первоначально на роль О была утверждена Дженнифер Лоуренс, но в последствии актриса отказалась от съёмок ради роли в «Голодных играх».

Ума Турман сыграла мать О Паку, но все сцены с её участием были вырезаны из-за временного ограничения фильма.

Леонардо ДиКаприо, Том Харди, Гаррет Хедлунд и Джеймс Франко рассматривались на роль Бена.

Оливер Стоун приступил к работе над адаптацией сценария раньше, чем книга была опубликована. Он был настолько уверен в успехе, что сам способствовал инвестированию в проект.

Хотя это уже шестой раз, когда Фернандо Лара и Оливер Стоун работали вместе, в этом фильме впервые Лара был упомянут в титрах.

В рамках своей подготовки к фильму Тейлор Китч тренировался с настоящими Морскими котиками.

Первоначально выход фильма был запланирован на осень, но после первого тестового показа для студии эту дату резко передвинули на июль.

Оливер Стоун решил пригласить Тейлора Китча после просмотра отснятого материала фильма «Морской бой» (2012), который на тот момент был еще в стадии пост-продакшна.

Оливер Стоун поручил Блейк Лайвли пройти курсы по огнестрельному оружию для ее роли.

Несмотря на то, что у нее не было никакого опыта, она поразила мишень за первых три выстрела.

Оливер Стоун написал роль бойфренда Магны для Тревора Донована после того как роль, на которую он изначально пробовался, была вырезана из сценария.

Тейлор Китч исполнял трюки самостоятельно.

По требованию закона все растения марихуаны в фильме являются искусственными. Для более точного воспроизведения растений дизайнеры посетили места их законного выращивания для медицины.

Это первый фильм Оливера Стоуна за почти 17 лет, снятый при помощи анаморфотной оптики Panavision. После фильма «Никсон» (1995) его 2,35:1 фильмы были обрезаны с помощью съемки в Super 35. Оператор Дэниэл Майндел убедил его вернуться к анаморфированному формату.

Майндел снимал все свои проекты (кроме «Домино» (2005)) в этом формате. Во время их первой встречи Дэниэл сказал Стоуну, что если тот планировал снимать в Super 35 или цифру, то он не подходит для такой работы.

Джэйк МакЛафлин, сыгравший роль Дока, в реальной жизни является ветераном иракской войны.

Фильм поставлялся в кинотеатры под названием «Paqu».

Смешной рингтон, который использует Ла Рейна, это основная тема одного из самых популярных шоу в истории мексиканского ТВ: «Чаво с восьмого» (1972-1992).

Персонаж Елены отчасти основан на Мирее Морено Карреон, которая известна как первая в Мексике женщина являющаяся лидером влиятельного наркокартеля.

На роль Елены претендовали Мишель Родригес и Зои Салдана, но вместо них роль отошла Сальме Хайек.

После того как Чон бьет Дениса, шрам на правой стороне шеи Чона отрывается от кожи.
Когда «полицейский на мотоцикле» из картеля подходит к машине парня, затем вытаскивает его, он держит свою руку на кобуре. Ствол пистолета не выступает через нижнюю часть кобуры, как должен выступать стандартный пистолет полиции. Но, когда он затем стреляет в парня, на стволе видно глушитель. Хотя у него явно не было времени накрутить его. Однако пистолет в кобуре висит на его правом бедре; оружие, которое он использует, чтобы убить Фрэнки, он выхватывает левой рукой из-за спины.
Свернуть
Скриншоты
Изображение
Изображение
ИзображениеИзображение
Изображение
Изображение
Свернуть
В сети
Профиль  
 Добавлено: 2014-04-04 03:08 (спустя 1 год 2 месяца)
Стаж: 8 лет 3 месяца
Сообщений: 29
Посмотрел на кинопоиске, отзывы вроде норм..., надо брать!
Не в сети
Профиль  
Начать новую темуОтветить на тему  [ Сообщений: 2 ] 
Вы не можете начинать темы
Вы не можете отвечать на сообщения
Вы не можете редактировать свои сообщения
Вы не можете удалять свои сообщения