Правила форума

  • В этом разделе создание новых тем Запрещено.
  • Для создания новых тем пользуйтесь Корневым разделом DVD и HD фильмы.
Начать новую темуОтветить на тему  [ Сообщений: 13 ] 
Торрент файл
Размер: 12.39 GB • Зарегистрирован: 5 лет 10 месяцев • Статус: Проверено
Скачан: 350 раз • Желающих скачать: 0 • Поблагодарили: 76 раз
 Раздают: 0  |  0 KB/s  ]   Качают: 0  |  0 KB/s  ] 
 Полного источника не было 7 дней 
Сообщения
 Добавлено: 2011-01-22 23:11
Аватара пользователя
Стаж: 8 лет
Возраст: 30
Сообщений: 846
Спасибок: 982
Лайков: 1
Остров проклятых / Shutter Island

Изображение

Год выпуска: 2010
Страна: США
Жанр: Триллер, драма, детектив
Продолжительность: 02:18:04
Перевод: Профессиональный (полное дублирование) с Blu-Ray "Союз-Видео"
Русские субтитры: есть (два варианта)

Режиссер: Мартин Скорсезе

В ролях: Леонардо ДиКаприо, Марк Руффало, Бен Кингсли, Макс фон Сюдов, Мишель Уильямс, Эмили Мортимер, Патриция Кларксон, Джеки Эрл Хейли, Тед Левайн, Джон Кэрролл Линч

Описание: Два американских судебных пристава отправляются на один из островов в штате Массачусетс, чтобы расследовать исчезновение пациентки клиники для умалишенных преступников. При проведении расследования им придется столкнуться с паутиной лжи, обрушившимся ураганом и смертельным бунтом обитателей клиники.

Рип сделан с американского Blu-Ray.

Качество:
BDRip
Формат: MKV
Видео кодек: H.264
Аудио кодек: DTS
Видео: 1920x816, 9826 kbps, 23.976 fps
Аудио1: Русский DTS 5.1, 48 KHz, 1536 kbps
Аудио2: Английский DTS 5.1, 48 KHz, 1536 kbps
Субтитры: Русские (по дубляжу), русские (voronine), русские (voronine, цветные), русские (voronine, цветные, для плохослышащих), английские

MediaInfo
Общее
Уникальный идентификатор : 178416646733937637509327902997129163263 (0x8639CBD72F3BADF182F1C13CB79F71FF)
Полное имя : F:\Остров проклятых 1080p.mkv
Формат : Matroska
Размер файла : 12,4 Гбайт
Продолжительность : 2 ч. 18 м.
Общий поток : 12,8 Мбит/сек
Дата кодирования : UTC 2010-05-18 10:02:33
Программа кодирования : mkvmerge v3.4.0 ('Rapunzel') built on May 15 2010 09:38:20
Библиотека кодирования : libebml v0.8.0 + libmatroska v0.9.0

Видео
Идентификатор : 1
Формат : AVC
Формат/Информация : Advanced Video Codec
Профиль формата : High@L4.1
Параметр CABAC формата : Да
Параметр ReFrames формата : 5 кадры
Идентификатор кодека : V_MPEG4/ISO/AVC
Продолжительность : 2 ч. 18 м.
Битрейт : 9826 Кбит/сек
Ширина : 1920 пикс.
Высота : 816 пикс.
Соотношение сторон : 2,35:1
Частота кадров : 23,976 кадр/сек
Цветовое пространство : YUV
Подвыборка цветности : 4:2:0
Битовая глубина : 8 бит
Тип развёртки : Прогрессивная
Бит/(Пиксели*Кадры) : 0.262
Размер потока : 9,23 Гбайт (75%)
Библиотека кодирования : x264 core 84 r1400M 20fa784
Настройки программы : cabac=1 / ref=5 / deblock=1:-3:-3 / analyse=0x3:0x113 / me=umh / subme=9 / psy=1 / psy_rd=1.0:0.0 / mixed_ref=1 / me_range=32 / chroma_me=1 / trellis=2 / 8x8dct=1 / cqm=0 / deadzone=21,11 / fast_pskip=0 / chroma_qp_offset=-4 / threads=12 / sliced_threads=0 / nr=0 / decimate=0 / mbaff=0 / constrained_intra=0 / bframes=6 / b_pyramid=2 / b_adapt=2 / b_bias=0 / direct=3 / wpredb=1 / wpredp=2 / keyint=250 / keyint_min=25 / scenecut=40 / intra_refresh=0 / rc_lookahead=45 / rc=2pass / mbtree=1 / bitrate=9826 / ratetol=1.0 / qcomp=0.60 / qpmin=10 / qpmax=51 / qpstep=4 / cplxblur=20.0 / qblur=0.5 / ip_ratio=1.40 / aq=1:1.00 / pulldown=0 / nal_hrd=0
Язык : English

Аудио #1
Идентификатор : 2
Формат : DTS
Формат/Информация : Digital Theater Systems
Идентификатор кодека : A_DTS
Продолжительность : 2 ч. 18 м.
Вид битрейта : Постоянный
Битрейт : 1510 Кбит/сек
Канал(ы) : 6 канала(ов)
Расположение каналов : Front: L C R, Side: L R, LFE
Частота : 48,0 КГц
Битовая глубина : 24 бит
Метод сжатия : С потерями
Размер потока : 1,46 Гбайт (12%)
Заголовок : DTS 5.1 1536 kbps
Язык : Russian

Аудио #2
Идентификатор : 3
Формат : DTS
Формат/Информация : Digital Theater Systems
Идентификатор кодека : A_DTS
Продолжительность : 2 ч. 18 м.
Вид битрейта : Постоянный
Битрейт : 1510 Кбит/сек
Канал(ы) : 6 канала(ов)
Расположение каналов : Front: L C R, Side: L R, LFE
Частота : 48,0 КГц
Битовая глубина : 24 бит
Метод сжатия : С потерями
Размер потока : 1,46 Гбайт (12%)
Заголовок : DTS 5.1 1536 kbps
Язык : English

Текст #1
Идентификатор : 4
Формат : UTF-8
Идентификатор кодека : S_TEXT/UTF8
Идентификатор кодека/Информация : UTF-8 Plain Text
Заголовок : Dub (Stevvie)
Язык : Russian

Текст #2
Идентификатор : 5
Формат : UTF-8
Идентификатор кодека : S_TEXT/UTF8
Идентификатор кодека/Информация : UTF-8 Plain Text
Заголовок : Voronine
Язык : Russian

Текст #3
Идентификатор : 6
Формат : UTF-8
Идентификатор кодека : S_TEXT/UTF8
Идентификатор кодека/Информация : UTF-8 Plain Text
Заголовок : Voronine Colored
Язык : Russian

Текст #4
Идентификатор : 7
Формат : UTF-8
Идентификатор кодека : S_TEXT/UTF8
Идентификатор кодека/Информация : UTF-8 Plain Text
Заголовок : Voronine Hearing Impaired Colored
Язык : Russian

Текст #5
Идентификатор : 8
Формат : UTF-8
Идентификатор кодека : S_TEXT/UTF8
Идентификатор кодека/Информация : UTF-8 Plain Text
Язык : English

Меню
00:00:00.000 : en:00:00:00.000
00:06:33.143 : en:00:06:33.143
00:13:07.787 : en:00:13:07.787
00:20:20.928 : en:00:20:20.928
00:26:35.636 : en:00:26:35.636
00:34:54.801 : en:00:34:54.801
00:41:23.523 : en:00:41:23.523
00:48:29.573 : en:00:48:29.573
00:55:17.898 : en:00:55:17.898
01:04:02.672 : en:01:04:02.672
01:10:05.410 : en:01:10:05.410
01:16:54.401 : en:01:16:54.401
01:23:05.731 : en:01:23:05.731
01:31:37.742 : en:01:31:37.742
01:37:29.719 : en:01:37:29.719
01:45:39.083 : en:01:45:39.083
01:52:29.785 : en:01:52:29.785
01:57:39.970 : en:01:57:39.970
02:03:50.923 : en:02:03:50.923
02:10:30.990 : en:02:10:30.990
02:18:04.526 : en:02:18:04.526

Свернуть
Скриншоты
Изображение
Изображение
Изображение
Свернуть
_________________
Я в контакте !
Не в сети
Профиль  
 Добавлено: 2011-01-25 00:24 (спустя 2 дня 1 час)
Аватара пользователя
Стаж: 8 лет 3 месяца
Возраст: 43
Сообщений: 3290
Спасибок: 21012
Лайков: 3
Название темы: Русское название (опционально, в скобках: альтернативные русские названия через запятую) / Оригинальное название / опционально: англоязычное название (полное имя режиссера) [год выпуска, жанры через запятую, качество] Опция. Пример: Клятва / Wu ji / The Promise (Чен Кайге) [2005 г., Драма, Фэнтази, DVDRip]
Размер постера должен быть от 350 до 550 точек по ширине
Я вам поправил
Надеюсь качество лучше чем тут viewtopic.php?f=1750&t=297667
_________________
Изображение
Не в сети
Профиль  
 Добавлено: 2011-01-26 18:19 (спустя 1 день 17 часов)
Стаж: 5 лет 11 месяцев
Сообщений: 7
А скорости, а?
Не в сети
Профиль  
 Добавлено: 2011-01-26 18:28 (спустя 8 минут)
Аватара пользователя
Стаж: 8 лет
Возраст: 30
Сообщений: 846
Спасибок: 982
Лайков: 1
U*LanСпециально для тебя раздачи все выключил, но ты всё равно принимаешь медленно(
_________________
Я в контакте !
Не в сети
Профиль  
 Добавлено: 2011-01-26 18:38 (спустя 10 минут)
Стаж: 9 лет 1 месяц
Сообщений: 59
как качество то? лучше не найти?
Не в сети
Профиль  
 Добавлено: 2011-01-26 18:47 (спустя 8 минут)
Аватара пользователя
Стаж: 8 лет
Возраст: 30
Сообщений: 846
Спасибок: 982
Лайков: 1
Только если Remux )
_________________
Я в контакте !
Не в сети
Профиль  
 Добавлено: 2011-06-23 21:05 (спустя 4 месяца 28 дней)
Аватара пользователя
Стаж: 6 лет 1 месяц
Сообщений: 532
Спасибок: 1132
Лайков: 2
а чем фильм закончился? я что то не понял конец! ему сделали лаботомию или он умер?
_________________

Cкрытый текст
Не в сети
Профиль  
 Добавлено: 2011-08-22 17:00 (спустя 1 месяц 28 дней)
Аватара пользователя
Стаж: 7 лет 11 месяцев
Сообщений: 786
Спасибок: 25
Лайков: 9
Фильм Супер , Я сутки в коми ходил после него ... Супер работа Лео , качайте и не думайте но не забывайте что это психологический фильм , так что смотрите внимательно :men:
Не в сети
Профиль  
 Добавлено: 2012-11-24 11:46 (спустя 1 год 3 месяца)
Стаж: 4 года 1 месяц
Сообщений: 17
Дайте скорости, пожалуйста, очень хочется этот фильм посмотреть!
Не в сети
Профиль  
 Добавлено: 2013-04-07 12:12 (спустя 4 месяца 13 дней)
Стаж: 3 года 11 месяцев
Сообщений: 10
скорости дайте!!!
Не в сети
Профиль  
 Добавлено: 2013-04-19 20:02 (спустя 12 дней)
Стаж: 4 года 6 месяцев
Сообщений: 71
Спасибок: 2
скорости плиз))
Не в сети
Профиль  
 Добавлено: 2013-10-08 21:38 (спустя 5 месяцев 19 дней)
Стаж: 4 года 1 месяц
Сообщений: 17
Хороший фильм, редко такие снимают! А жаль...
Не в сети
Профиль  
 Добавлено: 2014-01-17 09:10 (спустя 3 месяца 8 дней)
Стаж: 8 лет 2 месяца
Сообщений: 11
А что на раздаче никого нет уже? =(
Не в сети
Профиль  
Начать новую темуОтветить на тему  [ Сообщений: 13 ] 
Вы не можете начинать темы
Вы не можете отвечать на сообщения
Вы не можете редактировать свои сообщения
Вы не можете удалять свои сообщения