Правила форума

  • В этом разделе создание новых тем Запрещено.
  • Для создания новых тем пользуйтесь Корневым разделом DVD и HD фильмы.
Начать новую темуОтветить на тему  [ 1 сообщение ] 
Торрент файл
Размер: 19.65 GB • Зарегистрирован: 3 года 5 месяцев • Статус: Проверено
Скачан: 16 раз • Желающих скачать: 0 • Поблагодарили: 5 раз
 Раздают: 0  |  0 KB/s  ]   Качают: 0  |  0 KB/s  ] 
 Полного источника не было 3 года 2 месяца 
Сообщения
 Добавлено: 2013-06-30 07:56
Аватара пользователя
Стаж: 6 лет 4 месяца
Сообщений: 164
Спасибок: 151
Лайков: 9
От колыбели до могилы / Cradle 2 the Grave

Изображение


Год выпуска: 2003
Страна: США
Слоган: «Mortal enemies make dangerous friends.»
Жанр: боевик, триллер, драма, криминал
Продолжительность: 01:41:12
Версия фильма: Unrated / Полная версия
Перевод:
Профессиональный (многоголосый, закадровый), R5
2x Профессиональный (двухголосый, закадровый), LDV / DDV
Авторский (Гаврилов Андрей, Живов Юрий)
Субтитры: Русские, Английские

Режиссёр: Анджей Бартковяк
Сценарист: Джон О’Брайэн, Чаннинг Гибсон
Продюсер: Джоэл Силвер, Рэй Коуплэнд, Сьюзан Дауни
Оператор: Дарин Окада
Композитор: Дэймон Блэкман, Джон Фриззелл
В ролях: Джет Ли (Su), DMX (Anthony Fait), Энтони Андерсон (Tommy), Келли Ху (Sona), Том Арнольд (Archie), Марк Дакаскос (Yao Ling), Гэбриэл Юнион (Daria), Майкл Джейс (Odion), Драг-Он (Miles), Пейдж Херд (Vanessa), Паоло Сеганти (Christophe), Ричард Трапп (Douglas)
Описание: Профессиональный грабитель и секретный агент объединяют свои усилия в борьбе против банды свирепых гангстеров под руководством жестокого мафиози… В центре сюжета — бесценные сокровища — черные алмазы из Тайваня. Сначала их похищает банда чернокожего вора Тони Фейта. Но драгоценности приносят ему лишь неприятности: хозяин камешков, торговец оружием Линг, похищает дочь Фейта и требует вернуть бриллианты.

Только возвращать уже нечего: камни снова украдены, на этот раз бандой местного мафиози Джамба Чемберса. Чтобы вернуть дочь и уцелеть самому, Фейт вынужден объединиться с агентом тайваньской разведки Су, который тоже идет по следу бриллиантов. Дело в том, что черные алмазы — совсем не ювелирные драгоценности…
Доп.информация: Формат субтитров: Русский, Английский softsub (SRT)
Сохранены оригинальные чаптеры
Рейтинг MPAA: Рейтинг R (Подростки до 17 лет допускаются на фильм только в сопровождении одного из родителей)
Мировая премьера: 28 февраля 2003
Бюджет: $25 000 000
Кассовые сборы: $56 489 558
Изображение

Качество: BDRemux
Формат: Matroska
Видео кодек: AVC
Аудио кодек: AC3 (Dolby Digital)
Видео: MPEG-4 AVC Video / 17944 kbps / 1080p / 23,976 fps / 16:9 / High Profile 4.0
Формат субтитров: softsub (SRT, PGS)
Главы: есть (подписаны)
Аудио #1: Russian; AC3; 48.0 KHz; 16 bit; 384 Kbps; CBR; 6 ch || MVO (R5)
Аудио #2: Russian; AC3; 48.0 KHz; 16 bit; 448 Kbps; CBR; 6 ch || DVO (LDV)
Аудио #3: Russian; AC3; 48.0 KHz; 16 bit; 192 Kbps; CBR; 2 ch || DVO (DDV)
Аудио #4: Russian; AC3; 48.0 KHz; 16 bit; 448 Kbps; CBR; 6 ch || AVO (Gavrilov)
Аудио #5: Russian; DTS-HD Master Audio / 5.1 / 48 kHz / 4053 kbps / 24-bit (DTS Core: 5.1 / 48 kHz / 1509 kbps / 24-bit) || AVO (Jivov)
Аудио #6: English; DTS-HD Master Audio / 5.1 / 48 kHz / 4114 kbps / 24-bit (DTS Core: 5.1 / 48 kHz / 1509 kbps / 24-bit) || Original
Аудио #7: Ukrainian; AC3; 48.0 KHz; 16 bit; 192 Kbps; CBR; 2 ch || MVO (ICTV)
Субтитры #1: Russian; UTF-8
Субтитры #2: English; UTF-8
Субтитры #3: English; S_HDMV/PGS

Знаете ли вы что...
Съемки картины начались 11-го марта 2002 года, а закончились в начале лета того же года. Фильм снимался в Лос-Анджелесе и Торонто.
Первоначально продюсер картины Джоэл Силвер на главную роль в фильме планировал Вина Дизеля, но тот был занят съемками «Трех Иксов», поэтому от его кандидатуры пришлось отказаться.
Рабочими названиями картины были «Untitled DMX Project» и «Untitled M Remake Project». Название «Cradle to the Grave» было заменено на более «крутое» «Cradle 2 the Grave».
В Германи фильм был назван «Born 2 Die» (Рождённый чтобы умереть).
Свернуть
MediaInfo
Код:
General
Unique ID : 248439136570398161578916878734264546281 (0xBAE7A322AD0F401BBA9FEE8FAA5AB3E9)
Complete name : I:\Video\up\Cradle.2.the.Grave.2003.BDRemux.AVC.1080p.5xRUS.UKR.ENG.Subs.mkv
Format : Matroska
Format version : Version 2
File size : 19.6 GiB
Duration : 1h 41mn
Overall bit rate mode : Variable
Overall bit rate : 27.8 Mbps
Encoded date : UTC 2012-08-20 13:12:55
Writing application : mkvmerge v5.7.0 ('The Whirlwind') built on Jul 8 2012 20:08:51
Writing library : libebml v1.2.3 + libmatroska v1.3.0

Video
ID : 1
Format : AVC
Format/Info : Advanced Video Codec
Format profile : High@L4.0
Format settings, CABAC : Yes
Format settings, ReFrames : 2 frames
Codec ID : V_MPEG4/ISO/AVC
Duration : 1h 41mn
Bit rate mode : Variable
Bit rate : 22.5 Mbps
Width : 1 920 pixels
Height : 1 080 pixels
Display aspect ratio : 16:9
Frame rate : 23.976 fps
Color space : YUV
Chroma subsampling : 4:2:0
Bit depth : 8 bits
Scan type : Progressive
Bits/(Pixel*Frame) : 0.452
Stream size : 15.9 GiB (81%)
Default : Yes
Forced : No

Audio #1
ID : 2
Format : AC-3
Format/Info : Audio Coding 3
Mode extension : CM (complete main)
Format settings, Endianness : Big
Codec ID : A_AC3
Duration : 1h 41mn
Bit rate mode : Constant
Bit rate : 384 Kbps
Channel(s) : 6 channels
Channel positions : Front: L C R, Side: L R, LFE
Sampling rate : 48.0 KHz
Bit depth : 16 bits
Compression mode : Lossy
Stream size : 278 MiB (1%)
Title : MVO (R5)
Language : Russian
Default : Yes
Forced : No

Audio #2
ID : 3
Format : AC-3
Format/Info : Audio Coding 3
Mode extension : CM (complete main)
Format settings, Endianness : Big
Codec ID : A_AC3
Duration : 1h 41mn
Bit rate mode : Constant
Bit rate : 448 Kbps
Channel(s) : 6 channels
Channel positions : Front: L C R, Side: L R, LFE
Sampling rate : 48.0 KHz
Bit depth : 16 bits
Compression mode : Lossy
Stream size : 324 MiB (2%)
Title : DVO (LDV)
Language : Russian
Default : No
Forced : No

Audio #3
ID : 4
Format : AC-3
Format/Info : Audio Coding 3
Mode extension : CM (complete main)
Format settings, Endianness : Big
Codec ID : A_AC3
Duration : 1h 41mn
Bit rate mode : Constant
Bit rate : 192 Kbps
Channel(s) : 2 channels
Channel positions : Front: L R
Sampling rate : 48.0 KHz
Bit depth : 16 bits
Compression mode : Lossy
Stream size : 139 MiB (1%)
Title : DVO (DDV)
Language : Russian
Default : No
Forced : No

Audio #4
ID : 5
Format : AC-3
Format/Info : Audio Coding 3
Mode extension : CM (complete main)
Format settings, Endianness : Big
Codec ID : A_AC3
Duration : 1h 41mn
Bit rate mode : Constant
Bit rate : 448 Kbps
Channel(s) : 6 channels
Channel positions : Front: L C R, Side: L R, LFE
Sampling rate : 48.0 KHz
Bit depth : 16 bits
Compression mode : Lossy
Stream size : 324 MiB (2%)
Title : AVO (Gavrilov)
Language : Russian
Default : No
Forced : No

Audio #5
ID : 6
Format : DTS
Format/Info : Digital Theater Systems
Format profile : MA / Core
Codec ID : A_DTS
Duration : 1h 41mn
Bit rate mode : Variable
Bit rate : 1 561 Kbps / 1 510 Kbps
Channel(s) : 6 channels
Channel positions : Front: L C R, Side: L R, LFE
Sampling rate : 48.0 KHz
Bit depth : 24 bits
Compression mode : Lossless / Lossy
Title : AVO (Jivov)
Language : Russian
Default : No
Forced : No

Audio #6
ID : 7
Format : DTS
Format/Info : Digital Theater Systems
Format profile : MA / Core
Codec ID : A_DTS
Duration : 1h 41mn
Bit rate mode : Variable
Bit rate : 1 561 Kbps / 1 510 Kbps
Channel(s) : 6 channels
Channel positions : Front: L C R, Side: L R, LFE
Sampling rate : 48.0 KHz
Bit depth : 24 bits
Compression mode : Lossless / Lossy
Title : Original
Language : English
Default : No
Forced : No

Audio #7
ID : 8
Format : AC-3
Format/Info : Audio Coding 3
Mode extension : CM (complete main)
Format settings, Endianness : Big
Codec ID : A_AC3
Duration : 1h 41mn
Bit rate mode : Constant
Bit rate : 192 Kbps
Channel(s) : 2 channels
Channel positions : Front: L R
Sampling rate : 48.0 KHz
Bit depth : 16 bits
Compression mode : Lossy
Stream size : 139 MiB (1%)
Title : MVO (ICTV)
Language : Ukrainian
Default : No
Forced : No

Text #1
ID : 9
Format : UTF-8
Codec ID : S_TEXT/UTF8
Codec ID/Info : UTF-8 Plain Text
Language : Russian
Default : No
Forced : No

Text #2
ID : 10
Format : UTF-8
Codec ID : S_TEXT/UTF8
Codec ID/Info : UTF-8 Plain Text
Language : English
Default : No
Forced : No

Text #3
ID : 11
Format : PGS
Muxing mode : zlib
Codec ID : S_HDMV/PGS
Codec ID/Info : The same subtitle format used on BDs/HD-DVDs
Language : English
Default : No
Forced : No

Menu
00:00:00.000 : en:The Heist Is On (Credits; Go to Sleep)
00:04:01.074 : en:Dropping In
00:06:40.650 : en:Tommy's Turn
00:09:34.157 : en:In-Demand Gems
00:13:09.330 : en:Rapid Transit
00:18:28.107 : en:Diamond for a Princess
00:23:02.881 : en:No Deal
00:27:14.800 : en:Mixed Doubles
00:31:29.930 : en:Stuck With Each Other
00:35:45.643 : en:Daughter Worries
00:39:03.424 : en:Chambers' Chambers (Break Somethin')
00:43:35.530 : en:Into the Driver's Seat (So Whasup)
00:46:15.940 : en:Leave it to Archie
00:51:40.139 : en:Tommy the Bug Man
00:54:34.313 : en:Sexy Distraction (N***a Please)
00:56:20.294 : en:Crashing In
00:59:40.285 : en:Calling #12
01:03:28.763 : en:Free-Wheeling (X Gon' Give it to Ya)
01:09:40.259 : en:Escaping and Resting
01:12:07.448 : en:One Step Behind
01:15:41.370 : en:Green Light
01:18:40.633 : en:Break Out the Heat
01:23:23.749 : en:Big Guns
01:27:21.361 : en:Fighting Mad
01:30:39.267 : en:Ring of Fire
01:34:31.875 : en:Faith
01:36:29.784 : en:End Credits (Right/Wrong)
01:37:32.346 : en:Sidekicks
Свернуть
Скриншоты
ИзображениеИзображение
ИзображениеИзображение
ИзображениеИзображение
Свернуть
Не в сети
Профиль  
Начать новую темуОтветить на тему  [ 1 сообщение ] 
Вы не можете начинать темы
Вы не можете отвечать на сообщения
Вы не можете редактировать свои сообщения
Вы не можете удалять свои сообщения