Правила форума

  • В этом разделе создание новых тем Запрещено.
  • Для создания новых тем пользуйтесь Корневым разделом DVD и HD фильмы.
Начать новую темуОтветить на тему  [ 1 сообщение ] 
Торрент файл
Размер: 18.54 GB • Зарегистрирован: 4 года 8 месяцев • Статус: Проверено
Скачан: 19 раз • Желающих скачать: 0 • Поблагодарили: 1 раз
 Раздают: 0  |  0 KB/s  ]   Качают: 0  |  0 KB/s  ] 
 Полного источника не было 3 года 2 месяца 
Сообщения
 Добавлено: 2012-03-14 10:42
Модератор релиз-группы
Аватара пользователя
Стаж: 9 лет 1 месяц
Возраст: 97
Сообщений: 11660
Спасибок: 6533
Лайков: 269
От заката до рассвета 3: Дочь палача / From Dusk Till Dawn 3: The Hangman's Daughter

Изображение

Год выпуска: 1999
Страна: США
Жанр: ужасы
Продолжительность: 1:33:02
Перевод: Профессиональный (многоголосый, закадровый)
Авторский (одноголосый) Андрей Гаврилов
Авторский (одноголосый) Сергей Визгунов
Cубтитры: русские

Режиссер: П. Дж. Пеше / P.J. Pesce

В ролях: Марко Леонарди, Майкл Паркс, Темуэра Моррисон, Ребекка Гэйхарт, Ара Сели, Ленни Лофтин, Соня Брага, Орландо Джонс, Дэнни Трехо, Джордана Спиро, Кевин Смит

Описание: Такие отчаянные бандиты, как Джонни, рано или поздно оказываются на виселице. На этот раз Джонни повезло: в безумной перестрелке таинственный незнакомец спасает его от смерти, и он бежит, похитив дочь своего палача - Эсмеральду. Взбешенный и опозоренный, палач бросается в погоню. И когда возмездие было почти неизбежным, яростные противники оказываются перед лицом общей угрозы, способной изменить все. И навсегда...
Изображение
Качество: BDRemux
Формат: MKV
Видео: MPEG-4 AVC Video 24000 kbps 1080p / 23,976 fps / 16:9 / High Profile 4.1
Аудио: Russian DTS 5.1 / 48 kHz / 1509 kbps / 16-bit | R5
Аудио: Russian DTS 5.1 / 48 kHz / 1509 kbps / 16-bit | Гаврилов
Аудио: Russian DTS 5.1 / 48 kHz / 1509 kbps / 16-bit | Визгунов
Субтитры : русские
скриншоты
Изображение

Изображение

Изображение
Свернуть
Mi
Format : Matroska
Format version : Version 2
File size : 18.5 GiB
Duration : 1h 33mn
Overall bit rate mode : Variable
Overall bit rate : 28.5 Mbps
Encoded date : UTC 2012-03-14 07:20:31
Writing application : mkvmerge v5.3.0 ('I could have danced') built on Feb 9 2012 10:38:07
Writing library : libebml v1.2.3 + libmatroska v1.3.0

Video
ID : 1
Format : AVC
Format/Info : Advanced Video Codec
Format profile : High@L4.1
Format settings, CABAC : Yes
Format settings, ReFrames : 4 frames
Format settings, GOP : M=3, N=24
Codec ID : V_MPEG4/ISO/AVC
Duration : 1h 33mn
Bit rate mode : Variable
Bit rate : 23.4 Mbps
Maximum bit rate : 38.0 Mbps
Width : 1 920 pixels
Height : 1 080 pixels
Display aspect ratio : 16:9
Frame rate : 23.976 fps
Standard : NTSC
Color space : YUV
Chroma subsampling : 4:2:0
Bit depth : 8 bits
Scan type : Progressive
Bits/(Pixel*Frame) : 0.471
Stream size : 15.2 GiB (82%)
Default : Yes
Forced : No

Audio #1
ID : 2
Format : DTS
Format/Info : Digital Theater Systems
Codec ID : A_DTS
Duration : 1h 33mn
Bit rate mode : Constant
Bit rate : 1 510 Kbps
Channel(s) : 6 channels
Channel positions : Front: L C R, Side: L R, LFE
Sampling rate : 48.0 KHz
Bit depth : 16 bits
Compression mode : Lossy
Stream size : 1 004 MiB (5%)
Language : Russian
Default : Yes
Forced : No

Audio #2
ID : 3
Format : DTS
Format/Info : Digital Theater Systems
Codec ID : A_DTS
Duration : 1h 33mn
Bit rate mode : Constant
Bit rate : 1 510 Kbps
Channel(s) : 6 channels
Channel positions : Front: L C R, Side: L R, LFE
Sampling rate : 48.0 KHz
Bit depth : 16 bits
Compression mode : Lossy
Stream size : 1 004 MiB (5%)
Language : Russian
Default : No
Forced : No

Audio #3
ID : 4
Format : DTS
Format/Info : Digital Theater Systems
Codec ID : A_DTS
Duration : 1h 33mn
Bit rate mode : Constant
Bit rate : 1 510 Kbps
Channel(s) : 6 channels
Channel positions : Front: L C R, Side: L R, LFE
Sampling rate : 48.0 KHz
Bit depth : 16 bits
Compression mode : Lossy
Stream size : 1 004 MiB (5%)
Language : Russian
Default : No
Forced : No

Text
ID : 5
Format : PGS
Muxing mode : zlib
Codec ID : S_HDMV/PGS
Codec ID/Info : The same subtitle format used on BDs/HD-DVDs
Language : Russian
Default : Yes
Forced : No

Свернуть
_________________
Изображение
Не в сети
Профиль  
Начать новую темуОтветить на тему  [ 1 сообщение ] 
Вы не можете начинать темы
Вы не можете отвечать на сообщения
Вы не можете редактировать свои сообщения
Вы не можете удалять свои сообщения