Правила форума

  • В этом разделе создание новых тем Запрещено.
  • Для создания новых тем пользуйтесь Корневым разделом DVD и HD фильмы.
Начать новую темуОтветить на тему  [ Сообщений: 2 ] 
Торрент файл
Размер: 4.89 GB • Зарегистрирован: 5 лет 7 месяцев • Статус: Проверено
Скачан: 32 раза • Желающих скачать: 0 • Поблагодарили: 10 раз
 Раздают: 0  |  0 KB/s  ]   Качают: 0  |  0 KB/s  ] 
 Полного источника не было 3 года 2 месяца 
Сообщения
 Добавлено: 2012-01-05 23:14
Модератор релиз-группы
Аватара пользователя
Стаж: 7 лет 8 месяцев
Возраст: 29
Сообщений: 9789
Спасибок: 23732
Лайков: 103
Изображение

Отчаянная домохозяйка / Potiche


«Большой переполох в маленьком семействе»

Год выпуска: 2010
Страна: Франция
Жанр: комедия
Продолжительность: 01:38:33
Перевод: Профессиональный многоголосый (R5 "CP Digital")
Режиссер: Франсуа Озон
Сценарий: Пьер Барийе, Жан-Пьер Греди, Франсуа Озон
Продюсер: Эрик Альтмайер, Николас Альтмайер, Женевьева Лемаль
Композитор: Филипп Ромби
В ролях: Катрин Денёв, Жерар Депардье, Фабрис Лукини, Карин Виар, Жюдит Годреш, Жереми Ренье, Серхи Лопес, Эвелин Дандри, Бруно Лоше
Описание: Франция, 1977 год. Роберт Пюжоль возглавляет фабрику по производству зонтов. Он изменяет своей жене Сюзанне и никак не может справиться с забастовкой работников. Разборки с бастующими доводят месье Пюжоля до больницы, а в директорское кресло временно садится мадам Пюжоль. Оказывается, что наивная домохозяйка не только способна удачно управлять заводом, но и не настолько проста, как кажется на первый взгляд. За мадам Пюжоль ухаживает мэр города, коммунист Морис Бобен, любящий ее уже очень давно. Но как изменится его отношение, если станет известно богатое прошлое домохозяйки? А если она вдобавок решит баллотироваться в депутаты?
Изображение
Сборы в мире: $22 012 261
Изображение
MPAA: Изображение
Раздача группы: Изображение

Качество: BDRip, 720p
Формат: AVI
Видео: MPEG-4 AVC, 4835 Кбит/с, 1280x696
Аудио: Русский (DTS, 6 ch, 755 Кбит/с), французкий (DTS, 6 ch, 1510 Кбит/с)
Cубтитры: Русские
Изображение

Info
General
Complete name : Potiche.2010.BDRip.720p.mkv
Format : Matroska
File size : 4.89 GiB
Duration : 1h 38mn
Overall bit rate : 7 101 Kbps
Encoded date : UTC 2011-03-13 01:29:35
Writing application : mkvmerge v4.3.0 ('Escape from the Island') built on Sep 5 2010 10:30:51
Writing library : libebml v1.0.0 + libmatroska v1.0.0
Video
ID : 1
Format : AVC
Format/Info : Advanced Video Codec
Format profile : High@L4.1
Format settings, CABAC : Yes
Format settings, ReFrames : 5 frames
Format settings, GOP : M=4, N=16
Muxing mode : Container profile=Unknown@4.1
Codec ID : V_MPEG4/ISO/AVC
Duration : 1h 38mn
Bit rate : 4 835 Kbps
Width : 1 280 pixels
Height : 696 pixels
Display aspect ratio : 16:9
Frame rate : 25.000 fps
Color space : YUV
Chroma subsampling : 4:2:0
Bit depth : 8 bits
Scan type : Progressive
Bits/(Pixel*Frame) : 0.217
Stream size : 3.23 GiB (66%)
Writing library : x264 core 114 r1913 5fd3dce
Encoding settings : cabac=1 / ref=5 / deblock=1:0:0 / analyse=0x3:0x113 / me=umh / subme=7 / psy=1 / psy_rd=1.00:0.15 / mixed_ref=1 / me_range=16 / chroma_me=1 / trellis=1 / 8x8dct=1 / cqm=0 / deadzone=21,11 / fast_pskip=0 / chroma_qp_offset=-3 / threads=12 / sliced_threads=0 / nr=0 / decimate=1 / interlaced=0 / constrained_intra=0 / bframes=3 / b_pyramid=2 / b_adapt=1 / b_bias=0 / direct=1 / weightb=1 / open_gop=0 / weightp=2 / keyint=250 / keyint_min=25 / scenecut=40 / intra_refresh=0 / rc_lookahead=40 / rc=2pass / mbtree=1 / bitrate=4835 / ratetol=1.0 / qcomp=0.60 / qpmin=0 / qpmax=69 / qpstep=4 / cplxblur=20.0 / qblur=0.5 / ip_ratio=1.40 / aq=1:1.00
Language : English
Audio #1
ID : 2
Format : DTS
Format/Info : Digital Theater Systems
Codec ID : A_DTS
Duration : 1h 38mn
Bit rate mode : Constant
Bit rate : 755 Kbps
Channel(s) : 6 channels
Channel positions : Front: L C R, Side: L R, LFE
Sampling rate : 48.0 KHz
Bit depth : 24 bits
Stream size : 532 MiB (11%)
Language : Russian
Audio #2
ID : 3
Format : DTS
Format/Info : Digital Theater Systems
Codec ID : A_DTS
Duration : 1h 38mn
Bit rate mode : Constant
Bit rate : 1 510 Kbps
Channel(s) : 6 channels
Channel positions : Front: L C R, Side: L R, LFE
Sampling rate : 48.0 KHz
Bit depth : 24 bits
Video delay : 11ms
Stream size : 1.04 GiB (21%)
Language : French
Text
ID : 4
Format : UTF-8
Codec ID : S_TEXT/UTF8
Codec ID/Info : UTF-8 Plain Text
Language : Russian
Menu
00:00:00.000 : en:00:00:00.000
00:03:02.000 : en:00:03:02.000
00:14:25.000 : en:00:14:25.000
00:21:31.720 : en:00:21:31.720
00:27:33.000 : en:00:27:33.000
00:30:56.000 : en:00:30:56.000
00:35:22.320 : en:00:35:22.320
00:43:50.760 : en:00:43:50.760
00:48:40.800 : en:00:48:40.800
01:00:15.760 : en:01:00:15.760
01:12:27.160 : en:01:12:27.160
01:20:03.000 : en:01:20:03.000
01:29:14.680 : en:01:29:14.680
01:35:31.160 : en:01:35:31.160
Свернуть
Скриншоты
Изображение
Изображение
Изображение
Изображение
Свернуть
Не в сети
Профиль  
 Добавлено: 2012-01-08 23:27 (спустя 3 дня)
Стаж: 8 лет 10 месяцев
Сообщений: 10
у меня проблемы со звуком. постоянно прерывается с самого начала и на протяжении всего фильма. это именно недостаток файла.
Не в сети
Профиль  
Начать новую темуОтветить на тему  [ Сообщений: 2 ] 
Вы не можете начинать темы
Вы не можете отвечать на сообщения
Вы не можете редактировать свои сообщения
Вы не можете удалять свои сообщения