Правила форума

  • В этом разделе создание новых тем Запрещено.
  • Для создания новых тем пользуйтесь Корневым разделом DVD и HD фильмы.
Начать новую темуОтветить на тему  [ 1 сообщение ] 
Торрент файл
Размер: 12.86 GB • Зарегистрирован: 3 года 7 месяцев • Статус: Проверено
Скачан: 21 раз • Желающих скачать: 0 • Поблагодарили: 6 раз
 Раздают: 0  |  0 KB/s  ]   Качают: 0  |  0 KB/s  ] 
 Полного источника не было 14 часов 
Сообщения
 Добавлено: 2013-07-05 20:21
Модератор релиз-группы
Аватара пользователя
Стаж: 7 лет 8 месяцев
Возраст: 29
Сообщений: 9789
Спасибок: 23731
Лайков: 103
Изображение

Отчаянный
Desperado


Год выпуска: 1995
Страна: США
Слоган: «The explosive new film from Robert Rodriguez»
Жанр: боевик, триллер, криминал, вестерн
Продолжительность: 01:44:30
Перевод: Профессиональный (многоголосый, закадровый)(R5, ОРТ)
Авторский (Дмитрий Пучков (Гоблин))
Авторский (Визгунов Сергей)
Авторский (Гаврилов Андрей)
Любительский (одноголосый)

Режиссер: Роберт Родригес
Сценарий: Роберт Родригес
Продюсер: Билл Борден, Роберт Родригес, Элизабет Авеллан, Карлос Гальярдо
Оператор: Гильермо Наварро
Композитор: Лос Лобос
В ролях: Антонио Бандерас, Сальма Хайек, Жоаким ди Алмейда, Чич Марин, Стив Бушеми, Карлос Гомес, Квентин Тарантино, Тито Ларрива, Энджел Авилес, Дэнни Трехо, Абрахам Вердуско, Карлос Гальярдо
Бюджет: $7 000 000
Сборы в США: $25 405 445
Мировая премьера: 25 августа 1995
Описание: Он - бесстрашный герой, ведущий охоту на короля преступного мира. Но - исполнить приговор невозможно. Но - вновь на карту поставлена жизнь любимой, и начинается жестокое противостояние одиночки и армии вооруженных до зубов головорезов.

Изображение User Rating: 7.816 (25 186)
Изображение User Rating: 7.10 (92 732)
MPAA: R - Лицам до 17 лет обязательно присутствие взрослого
Раздача группы: Изображение
Релиз группы: Изображение
Качество: BDRip, 1080p
Формат: MKV
Видео: AVC; 1920x1038 (1.850); 13894 Kbps; 23,976 fps; 0,291 bit/pixel
Аудио №1: русский; AC3; 384 Kbps; CBR; 6 ch
Аудио №2: русский; AC3; 192 Kbps; CBR; 2 ch
Аудио №3: русский; AC3; 448 Kbps; CBR; 6 ch
Аудио №4: русский; AC3; 448 Kbps; CBR; 6 ch
Аудио №5: русский; AC3; 192 Kbps; CBR; 2 ch
Аудио №6: русский; AC3; 192 Kbps; CBR; 2 ch
Аудио №7: английский; DTS; 1510 Kbps; CBR; 6 ch; 24 bit

Субтитры №1: английские
Субтитры №2: русские
Субтитры №3: русские

mediainfo
Общее
Уникальный идентификатор : 221083580735005210485555314249523253282 (0xA653261A0CC65BC2A46D9954223FD022)
Полное имя : D:\TORRENT\Otchayanny.1995.x264.BDRip.1080p.mkv
Формат : Matroska
Размер файла : 12,9 Гбайт
Продолжительность : 1 ч. 44 м.
Общий поток : 17,6 Мбит/сек
Название фильма : Desperado.1995.BluRay.1080p.DTS.x264-CHD
Дата кодирования : UTC 2010-12-21 06:29:19
Программа кодирования : mkvmerge v3.2.0 ('Beginnings') built on Feb 12 2010 16:46:17
Библиотека кодирования : libebml v0.7.9 + libmatroska v0.8.1

Видео
Идентификатор : 1
Формат : AVC
Формат/Информация : Advanced Video Codec
Профиль формата : High@L4.1
Параметр CABAC формата : Да
Параметр ReFrames формата : 4 кадра
Идентификатор кодека : V_MPEG4/ISO/AVC
Продолжительность : 1 ч. 44 м.
Битрейт : 14,2 Мбит/сек
Ширина : 1920 пикс.
Высота : 1038 пикс.
Соотношение сторон : 1,850
Частота кадров : 23,976 кадр/сек
Цветовое пространство : YUV
Подвыборка цветности : 4:2:0
Битовая глубина : 8 бит
Тип развёртки : Прогрессивная
Бит/(Пиксели*Кадры) : 0.298
Размер потока : 10,1 Гбайт (79%)
Заголовок : Desperado.1995
Библиотека кодирования : x264 core 107 r1766 f9f0035
Настройки программы : cabac=1 / ref=4 / deblock=1:-3:-3 / analyse=0x3:0x113 / me=umh / subme=10 / psy=1 / psy_rd=1.10:0.15 / mixed_ref=1 / me_range=48 / chroma_me=1 / trellis=2 / 8x8dct=1 / cqm=2 / deadzone=21,11 / fast_pskip=0 / chroma_qp_offset=-2 / threads=12 / sliced_threads=0 / nr=0 / decimate=1 / interlaced=0 / constrained_intra=0 / bframes=6 / b_pyramid=2 / b_adapt=2 / b_bias=0 / direct=3 / weightb=1 / open_gop=0 / weightp=2 / keyint=250 / keyint_min=23 / scenecut=40 / intra_refresh=0 / rc_lookahead=40 / rc=2pass / mbtree=0 / bitrate=14243 / ratetol=1.0 / qcomp=0.70 / qpmin=10 / qpmax=51 / qpstep=4 / cplxblur=20.0 / qblur=0.5 / vbv_maxrate=45000 / vbv_bufsize=40000 / ip_ratio=1.40 / pb_ratio=1.30 / aq=1:0.80 / nal_hrd=none
Язык : English

Аудио #1
Идентификатор : 2
Формат : AC-3
Формат/Информация : Audio Coding 3
Расширение режима : CM (complete main)
Идентификатор кодека : A_AC3
Продолжительность : 1 ч. 44 м.
Вид битрейта : Постоянный
Битрейт : 384 Кбит/сек
Каналы : 6 каналов
Расположение каналов : Front: L C R, Side: L R, LFE
Частота : 48,0 КГц
Битовая глубина : 16 бит
Метод сжатия : С потерями
Размер потока : 287 Мбайт (2%)
Заголовок : профессиональный (R5)
Язык : Russian

Аудио #2
Идентификатор : 3
Формат : AC-3
Формат/Информация : Audio Coding 3
Расширение режима : CM (complete main)
Идентификатор кодека : A_AC3
Продолжительность : 1 ч. 44 м.
Вид битрейта : Постоянный
Битрейт : 192 Кбит/сек
Каналы : 2 канала
Расположение каналов : Front: L R
Частота : 48,0 КГц
Битовая глубина : 16 бит
Метод сжатия : С потерями
Размер потока : 144 Мбайт (1%)
Заголовок : профессиональный (1 канал)
Язык : Russian

Аудио #3
Идентификатор : 4
Формат : AC-3
Формат/Информация : Audio Coding 3
Расширение режима : CM (complete main)
Идентификатор кодека : A_AC3
Продолжительность : 1 ч. 44 м.
Вид битрейта : Постоянный
Битрейт : 448 Кбит/сек
Каналы : 6 каналов
Расположение каналов : Front: L C R, Side: L R, LFE
Частота : 48,0 КГц
Битовая глубина : 16 бит
Метод сжатия : С потерями
Размер потока : 335 Мбайт (3%)
Заголовок : авторский (Дмитрий Пучков)
Язык : Russian

Аудио #4
Идентификатор : 5
Формат : AC-3
Формат/Информация : Audio Coding 3
Расширение режима : CM (complete main)
Идентификатор кодека : A_AC3
Продолжительность : 1 ч. 44 м.
Вид битрейта : Постоянный
Битрейт : 448 Кбит/сек
Каналы : 6 каналов
Расположение каналов : Front: L C R, Side: L R, LFE
Частота : 48,0 КГц
Битовая глубина : 16 бит
Метод сжатия : С потерями
Размер потока : 335 Мбайт (3%)
Заголовок : авторский (Андрей Гаврилов)
Язык : Russian

Аудио #5
Идентификатор : 6
Формат : AC-3
Формат/Информация : Audio Coding 3
Расширение режима : CM (complete main)
Идентификатор кодека : A_AC3
Продолжительность : 1 ч. 44 м.
Вид битрейта : Постоянный
Битрейт : 192 Кбит/сек
Каналы : 2 канала
Расположение каналов : Front: L R
Частота : 48,0 КГц
Битовая глубина : 16 бит
Метод сжатия : С потерями
Размер потока : 144 Мбайт (1%)
Заголовок : авторский (Сергей Визгунов)
Язык : Russian

Аудио #6
Идентификатор : 7
Формат : AC-3
Формат/Информация : Audio Coding 3
Расширение режима : CM (complete main)
Идентификатор кодека : A_AC3
Продолжительность : 1 ч. 44 м.
Вид битрейта : Постоянный
Битрейт : 192 Кбит/сек
Каналы : 2 канала
Расположение каналов : Front: L R
Частота : 48,0 КГц
Битовая глубина : 16 бит
Метод сжатия : С потерями
Размер потока : 144 Мбайт (1%)
Заголовок : любительский вольный перевод
Язык : Russian

Аудио #7
Идентификатор : 8
Формат : DTS
Формат/Информация : Digital Theater Systems
Идентификатор кодека : A_DTS
Продолжительность : 1 ч. 44 м.
Вид битрейта : Постоянный
Битрейт : 1510 Кбит/сек
Каналы : 6 каналов
Расположение каналов : Front: L C R, Side: L R, LFE
Частота : 48,0 КГц
Битовая глубина : 24 бит
Метод сжатия : С потерями
Размер потока : 1,10 Гбайт (9%)
Заголовок : DTS-HD MA CORE 1536K
Язык : English

Текст #1
Идентификатор : 9
Формат : UTF-8
Идентификатор кодека : S_TEXT/UTF8
Идентификатор кодека/Информация : UTF-8 Plain Text
Язык : English

Текст #2
Идентификатор : 10
Формат : UTF-8
Идентификатор кодека : S_TEXT/UTF8
Идентификатор кодека/Информация : UTF-8 Plain Text
Заголовок : R5
Язык : Russian

Текст #3
Идентификатор : 11
Формат : UTF-8
Идентификатор кодека : S_TEXT/UTF8
Идентификатор кодека/Информация : UTF-8 Plain Text
Заголовок : Пучков
Язык : Russian


Свернуть
"Знаете ли Вы, что..."
  • Рауль Джулия был утвержден на роль Бучо, но ему пришлось покинуть проект из-за осложнений со здоровьем.
  • Карлос Галлардо, исполнивший главную роль в «Музыканте» (1992), сыграл Кампу.
  • Персонажа Стива Бушеми зовут Бушеми, потому что данная роль была специально написана для Стива.
  • Когда Музыкант заходит в больницу, то можно заметить знак, на котором в красном перечеркнутом круге находится пистолет с глушителем.
  • Бар, где разговаривают Стив Бушеми и Чич Марин, - это реально существующий бар, который называется «Corona Club». Бар намного чище и больше, чем в фильме. Также на его стенах висят многочисленные фотографии актеров и съёмочной группы «Отчаянного».
  • Дженнифер Лопез пробовалась на роль Каролины.
  • Антонио Бандерас самостоятельно играл на гитаре во всех сценах, где это требовалось от его персонажа.
  • Пистолет, крепящийся на промежности, который так внимательно рассматривает Каролина, - это точно такой же пистолет, который активно использовал Секс-машина (Том Савини) в фильме Роберта Родригеза «От заката до рассвета» (1996).
  • «Отчаянный» стал единственным фильмом в трилогии о Музыканте, где курит главный герой, что противоречит его же заявлению в первой картине: «Я не курю, потому что мой голос - это моя жизнь».
  • Изначально фильм должен был называться «The Gunman» (El Pistolero). Однако название было изменено по требованию студии. В Мексике фильм вышел под названием «El Pistolero».
  • Роберт Родригез написал рок-версию песни «Malagueña Salerosa». Её можно услышать на финальных титрах «Убить Билла часть 2» (2004).
  • Согласно комментарию на DVD Роберта Родригеза, когда снимали постельную сцену между Антонио Бандерасом и Сальмой Хайек, посмотреть такое зрелище, пришла вся съёмочная группа в полном составе.
  • Изначально в фильме отсутствовал персонаж Квентина Тарантино, но когда он выразил желание поучаствовать в фильме, Родригез сразу же предложил ему роль.
  • Сцены с участием Стива Бушеми и Чича Марина снимались в очень напряженном графике, т. к. Стив мог присутствовать на съёмках только семь дней, а Чич - шесть.
  • Из-за небольшого бюджета практически все трюки в фильме исполняли два каскадера.
  • Ближе к концовке фильма мы узнаем, что настоящее имя Бучо - Сезар. Бучо называет Музыканта «Хуан» (Juan), а потом добавляет «manito». Это - сокращение от «hermanito», что означает «младший брат».
  • В сцене, где Бучо говорит своим людям: «Если вы видите незнакомого человека - убейте его. Что здесь сложного?» - в руках он держит пистолет Desert Eagle. 50AE.
  • Бюджет картины составил около $7 миллионов, что приблизительно в 1000 раз больше, чем бюджет «Музыканта» (1992).
  • Диего Сандовал, помощник режиссера, сыграл бухгалтера в сцене перестрелки в баре.
  • Роберт Родригес дал своим сёстрам, Анджеле Ланца и Патрисии Вонне, небольшие роли в фильме.
Свернуть
Скриншоты

Изображение
Изображение
Изображение
Изображение
Изображение
Изображение
Изображение
Изображение
Изображение
Свернуть


Тема поднималась пользователем volkov2009 2013-07-05 20:21.
Не в сети
Профиль  
Начать новую темуОтветить на тему  [ 1 сообщение ] 
Вы не можете начинать темы
Вы не можете отвечать на сообщения
Вы не можете редактировать свои сообщения
Вы не можете удалять свои сообщения