Правила форума

  • В этом разделе создание новых тем Запрещено.
  • Для создания новых тем пользуйтесь Корневым разделом DVD и HD фильмы.
Начать новую темуОтветить на тему  [ 1 сообщение ] 
Торрент файл
Размер: 4.89 GB • Зарегистрирован: 2 года 8 месяцев • Статус: Проверено
Скачан: 42 раза • Желающих скачать: 0 • Поблагодарили: 19 раз
 Раздают: 0  |  0 KB/s  ]   Качают: 0  |  0 KB/s  ] 
 Полного источника не было 15 часов 
Сообщения
 Добавлено: 2014-03-11 08:09
DVD Release Group
Аватара пользователя
Стаж: 7 лет 1 месяц
Сообщений: 3570
Спасибок: 247823
Лайков: 1020
Отец-молодец

Delivery Man


Изображение


Год выпуска: 2013
Страна: США
Жанр: Комедия, драма
Продолжительность: 01:44:47
Перевод: Профессиональный (полное дублирование)
Субтитры: Русские, английские
Режиссер: Кен Скотт
В ролях: Винс Вон, Крис Прэтт, Коби Смолдерс, Анджей Блюменфельд, Саймон Делани, Бобби Мойнахан, Дэйв Паттен, Адам Чанлер-Берат, Бритт Робертсон, Джек Рейнор
Описание: Жизнь бруклинского работяги Дэвида Возняка не похожа на праздник: у него кризис среднего возраста, он должен денег подпольному ростовщику, девушка собирается его бросить, а родной отец грозит увольнением с работы. А в довершение всех бед к нему приходит адвокат с известием о том, что в результате ошибки, которую двадцать лет назад совершили в банке спермы, который Дэвид посещал в студенческие годы, он является биологическим отцом 533 детей. И 142 из них обратились в суд с требованием раскрыть имя своего родителя. Вначале Дэвид не знает, что делать в такой ситуации, но постепенно любопытство перевешивает, и он решает — инкогнито — узнать поближе хотя бы некоторых из своих нежданных потомков…
Изображение Изображение
Дополнительно: Сохранены оригинальные чаптеры как на Blu-ray.
Качество: BDRip 720p
Формат: MKV
Видео кодек: H.264
Аудио кодек: AC3, DTS
Видео: 1280x532 23.98fps 4200Kbps
Аудио:
Аудио Rus: AC3 48kHz 6ch 640kbps
Аудио Eng: DTS 48kHz 6ch 1510kbps
Аудио Eng: AC3 48kHz 2ch 320kbps
"MediaInfo"
Формат : Matroska
Версия формата : Version 2
Размер файла : 4,89 Гбайт
Продолжительность : 1 ч. 44 м.
Общий поток : 6665 Кбит/сек
Название фильма : Rip by CMEGRoup
Дата кодирования : UTC 2014-03-15 14:05:20
Программа кодирования : mkvmerge v6.7.0 ('Back to the Ground') 64bit built on Jan 8 2014 15:10:52
Библиотека кодирования : libebml v1.3.0 + libmatroska v1.4.1

Видео
Идентификатор : 1
Формат : AVC
Формат/Информация : Advanced Video Codec
Профиль формата : High@L4.1
Параметр CABAC формата : Да
Параметр ReFrames формата : 12 кадров
Идентификатор кодека : V_MPEG4/ISO/AVC
Продолжительность : 1 ч. 44 м.
Битрейт : 4200 Кбит/сек
Ширина : 1280 пикселей
Высота : 532 пикселя
Соотношение сторон : 2,40:1
Режим частоты кадров : Постоянный
Частота кадров : 23,976 кадра/сек
Цветовое пространство : YUV
Субдискретизация насыщенности : 4:2:0
Битовая глубина : 8 бит
Тип развёртки : Прогрессивная
Бит/(Пиксели*Кадры) : 0.257
Размер потока : 2,98 Гбайт (61%)
Заголовок : CMEGRoup
Библиотека кодирования : x264 core 138 r2358 9e941d1
Настройки программы : cabac=1 / ref=12 / deblock=1:-3:-3 / analyse=0x3:0x113 / me=umh / subme=11 / psy=1 / psy_rd=1.00:0.00 / mixed_ref=1 / me_range=48 / chroma_me=1 / trellis=2 / 8x8dct=1 / cqm=0 / deadzone=21,11 / fast_pskip=1 / chroma_qp_offset=-2 / threads=6 / lookahead_threads=1 / sliced_threads=0 / nr=0 / decimate=1 / interlaced=0 / bluray_compat=0 / constrained_intra=0 / bframes=5 / b_pyramid=2 / b_adapt=1 / b_bias=0 / direct=2 / weightb=1 / open_gop=0 / weightp=2 / keyint=240 / keyint_min=23 / scenecut=40 / intra_refresh=0 / rc_lookahead=40 / rc=2pass / mbtree=1 / bitrate=4200 / ratetol=1.0 / qcomp=0.60 / qpmin=0 / qpmax=69 / qpstep=4 / cplxblur=20.0 / qblur=0.5 / vbv_maxrate=62500 / vbv_bufsize=78125 / nal_hrd=none / ip_ratio=1.40 / aq=1:1.00 / zones=144467,150743,q=40
Язык : English
Default : Да
Forced : Нет

Аудио #1
Идентификатор : 2
Формат : AC-3
Формат/Информация : Audio Coding 3
Расширение режима : CM (complete main)
Параметр Endianness формата : Big
Идентификатор кодека : A_AC3
Продолжительность : 1 ч. 44 м.
Вид битрейта : Постоянный
Битрейт : 640 Кбит/сек
Каналы : 6 каналов
Расположение каналов : Front: L C R, Side: L R, LFE
Частота : 48,0 КГц
Битовая глубина : 16 бит
Метод сжатия : С потерями
Размер потока : 480 Мбайт (10%)
Язык : Russian
Default : Да
Forced : Нет

Аудио #2
Идентификатор : 3
Формат : DTS
Формат/Информация : Digital Theater Systems
Режим : 16
Параметр Endianness формата : Big
Идентификатор кодека : A_DTS
Продолжительность : 1 ч. 44 м.
Вид битрейта : Постоянный
Битрейт : 1509 Кбит/сек
Каналы : 6 каналов
Расположение каналов : Front: L C R, Side: L R, LFE
Частота : 48,0 КГц
Битовая глубина : 24 бит
Метод сжатия : С потерями
Размер потока : 1,11 Гбайт (23%)
Заголовок : original 1536 kbs
Язык : English
Default : Нет
Forced : Нет

Аудио #3
Идентификатор : 4
Формат : AC-3
Формат/Информация : Audio Coding 3
Профиль формата : Dolby Digital
Расширение режима : CM (complete main)
Параметр Endianness формата : Big
Идентификатор кодека : A_AC3
Продолжительность : 1 ч. 44 м.
Вид битрейта : Постоянный
Битрейт : 320 Кбит/сек
Каналы : 2 канала
Расположение каналов : Front: L R
Частота : 48,0 КГц
Битовая глубина : 16 бит
Метод сжатия : С потерями
Размер потока : 240 Мбайт (5%)
Заголовок : Commentary
Язык : English
Default : Нет
Forced : Нет

Текст #1
Идентификатор : 5
Формат : UTF-8
Идентификатор кодека : S_TEXT/UTF8
Идентификатор кодека/Информация : UTF-8 Plain Text
Язык : Russian
Default : Да
Forced : Нет

Текст #2
Идентификатор : 6
Формат : UTF-8
Идентификатор кодека : S_TEXT/UTF8
Идентификатор кодека/Информация : UTF-8 Plain Text
Язык : Russian
Default : Нет
Forced : Нет

Текст #3
Идентификатор : 7
Формат : UTF-8
Идентификатор кодека : S_TEXT/UTF8
Идентификатор кодека/Информация : UTF-8 Plain Text
Язык : English
Default : Нет
Forced : Нет

Меню
00:00:00.000 : en:00:00:00.000
00:04:12.335 : en:00:04:12.335
00:10:42.392 : en:00:10:42.392
00:15:03.861 : en:00:15:03.861
00:21:04.054 : en:00:21:04.054
00:27:42.494 : en:00:27:42.494
00:35:00.557 : en:00:35:00.557
00:40:03.401 : en:00:40:03.401
00:45:06.287 : en:00:45:06.287
00:51:59.116 : en:00:51:59.116
00:58:35.011 : en:00:58:35.011
01:04:47.217 : en:01:04:47.217
01:07:59.325 : en:01:07:59.325
01:15:05.126 : en:01:15:05.126
01:20:11.223 : en:01:20:11.223
01:24:59.678 : en:01:24:59.678
01:30:48.318 : en:01:30:48.318
01:39:56.490 : en:01:39:56.490
Свернуть

"Скриншоты"
Изображение
Изображение
Изображение
Изображение
Изображение
Изображение
Изображение
Изображение
Изображение
Изображение
Свернуть
Не в сети
Профиль  
Начать новую темуОтветить на тему  [ 1 сообщение ] 
Вы не можете начинать темы
Вы не можете отвечать на сообщения
Вы не можете редактировать свои сообщения
Вы не можете удалять свои сообщения