Правила форума

  • В этом разделе создание новых тем Запрещено.
  • Для создания новых тем пользуйтесь Корневым разделом DVD и HD фильмы.
Начать новую темуОтветить на тему  [ 1 сообщение ] 
Торрент файл
Размер: 6.13 GB • Зарегистрирован: 4 года 5 месяцев • Статус: Проверено
Скачан: 65 раз • Желающих скачать: 0 • Поблагодарили: 12 раз
 Раздают: 0  |  0 KB/s  ]   Качают: 0  |  0 KB/s  ] 
 Полного источника не было 3 дня 
Сообщения
 Добавлено: 2012-06-22 14:45
Книголюб
Аватара пользователя
Стаж: 7 лет 2 месяца
Сообщений: 2823
Спасибок: 48825
Лайков: 73
Отель «Мэриголд»: Лучший из экзотических
The Best Exotic Marigold Hotel

Изображение


Год выпуска: 2011
Страна: Великобритания
Жанр: драма, комедия
Продолжительность: 02:06:45
Перевод: Профессиональный (дубляж)

Режиссёр: Джон Мэдден
В ролях: Джуди Денч, Билл Найи, Том Уилкинсон, Мэгги Смит, Дев Пател, Селия Имри, Пенелопа Уилтон, Тина Десае, Рональд Пикап, Диана Хардкэсл
Описание: Фильм повествует о группе британских пенсионеров, которые решили «удалиться на покой» в менее затратную по расходам и гораздо более экзотическую Индию. Соблазнившись рекламой о заново восстановленном отеле «Мериголд» и в предвкушении жизни полной удовольствий и безделья, они прибывают на место, только чтобы обнаружить, что отель, на самом деле, представляет собой лишь бледную тень своего былого величия. Но, несмотря на то, что окружающая обстановка далека от той роскоши, которую они себе представляли, совместные приключения бесповоротно меняют каждого из них, и они осознают, что можно начать жить заново и найти любовь, если отпустить прошлое…
Рейтинг MPAA: Рейтинг PG-13 (Дети до 13 лет допускаются на фильм только с родителями)
Мировая премьера: 30 ноября 2011
Изображение 7.795 841

Качество: BDRip 720p
Формат: MKV
Видео кодек: H.264
Аудио кодек: DTS
Видео: 4 811 kb/s, 1280x544, 23 976 fps 0.288Bits/Pixel
Аудио #1: 768 kb/s (6 ch), 48.0 KHz [Russian]
Аудио #2: 1510 kb/s (6 ch), 48.0 KHz [English]
MediaInfo
General
Unique ID : 207692306807702736025578838315759401018 (0x9C4015527E02E8B5AEBC2D645BFD783A)
Complete name : K:\Torrent\The.Best.Exotic.Marigold.Hotel.2011.D.720p.mkv
Format : Matroska
Format version : Version 2
File size : 6.13 GiB
Duration : 2h 3mn
Overall bit rate : 7 096 Kbps
Encoded date : UTC 2012-06-20 19:37:47
Writing application : mkvmerge v5.6.0 ('Kenya Kane') built on Jun 1 2012 21:45:42
Writing library : libebml v1.2.3 + libmatroska v1.3.0

Video
ID : 1
Format : AVC
Format/Info : Advanced Video Codec
Format profile : High@L4.1
Format settings, CABAC : Yes
Format settings, ReFrames : 5 frames
Codec ID : V_MPEG4/ISO/AVC
Duration : 2h 3mn
Bit rate : 4 811 Kbps
Width : 1 280 pixels
Height : 544 pixels
Display aspect ratio : 2.35:1
Frame rate : 23.976 fps
Color space : YUV
Chroma subsampling : 4:2:0
Bit depth : 8 bits
Scan type : Progressive
Bits/(Pixel*Frame) : 0.288
Stream size : 4.05 GiB (66%)
Writing library : x264 core 125 r2200 999b753
Encoding settings : cabac=1 / ref=5 / deblock=1:0:0 / analyse=0x3:0x113 / me=umh / subme=8 / psy=1 / psy_rd=1.00:0.00 / mixed_ref=1 / me_range=16 / chroma_me=1 / trellis=1 / 8x8dct=1 / cqm=0 / deadzone=21,11 / fast_pskip=1 / chroma_qp_offset=-2 / threads=12 / lookahead_threads=2 / sliced_threads=0 / nr=0 / decimate=1 / interlaced=0 / bluray_compat=0 / constrained_intra=0 / bframes=3 / b_pyramid=2 / b_adapt=2 / b_bias=0 / direct=3 / weightb=1 / open_gop=0 / weightp=2 / keyint=240 / keyint_min=24 / scenecut=40 / intra_refresh=0 / rc_lookahead=50 / rc=2pass / mbtree=1 / bitrate=4811 / ratetol=1.0 / qcomp=0.60 / qpmin=0 / qpmax=69 / qpstep=4 / cplxblur=20.0 / qblur=0.5 / ip_ratio=1.40 / aq=1:1.00
Language : English
Default : Yes
Forced : No

Audio #1
ID : 2
Format : DTS
Format/Info : Digital Theater Systems
Codec ID : A_DTS
Duration : 2h 3mn
Bit rate mode : Constant
Bit rate : 755 Kbps
Channel(s) : 6 channels
Channel positions : Front: L C R, Side: L R, LFE
Sampling rate : 48.0 KHz
Bit depth : 24 bits
Compression mode : Lossy
Stream size : 668 MiB (11%)
Title : DTS 5.1 @ 768 kpbs - Dub [BluRay]
Language : Russian
Default : Yes
Forced : Yes

Audio #2
ID : 3
Format : DTS
Format/Info : Digital Theater Systems
Codec ID : A_DTS
Duration : 2h 3mn
Bit rate mode : Constant
Bit rate : 1 510 Kbps
Channel(s) : 6 channels
Channel positions : Front: L C R, Side: L R, LFE
Sampling rate : 48.0 KHz
Bit depth : 24 bits
Compression mode : Lossy
Stream size : 1.31 GiB (21%)
Title : DTS 5.1 @ 1510 kpbs - Original
Language : English
Default : No
Forced : No

Text #1
ID : 4
Format : UTF-8
Codec ID : S_TEXT/UTF8
Codec ID/Info : UTF-8 Plain Text
Title : Full
Language : English
Default : Yes
Forced : No

Text #2
ID : 5
Format : VobSub
Muxing mode : zlib
Codec ID : S_VOBSUB
Codec ID/Info : The same subtitle format used on DVDs
Title : Full
Language : Russian
Default : No
Forced : No

Text #3
ID : 6
Format : VobSub
Muxing mode : zlib
Codec ID : S_VOBSUB
Codec ID/Info : The same subtitle format used on DVDs
Title : Full
Language : Ukrainian
Default : No
Forced : No

Menu
00:00:00.000 : en:00:00:00.000
00:07:29.616 : en:00:07:29.616
00:11:43.369 : en:00:11:43.369
00:21:02.136 : en:00:21:02.136
00:27:33.861 : en:00:27:33.861
00:34:23.561 : en:00:34:23.561
00:40:06.946 : en:00:40:06.946
00:43:47.166 : en:00:43:47.166
00:47:42.651 : en:00:47:42.651
00:50:45.334 : en:00:50:45.334
00:54:12.583 : en:00:54:12.583
00:57:08.842 : en:00:57:08.842
01:00:23.954 : en:01:00:23.954
01:03:26.052 : en:01:03:26.052
01:06:52.550 : en:01:06:52.550
01:10:29.058 : en:01:10:29.058
01:15:00.621 : en:01:15:00.621
01:18:49.808 : en:01:18:49.808
01:22:09.716 : en:01:22:09.716
01:28:06.615 : en:01:28:06.615
01:31:40.704 : en:01:31:40.704
01:34:19.028 : en:01:34:19.028
01:39:22.039 : en:01:39:22.039
01:41:38.467 : en:01:41:38.467
01:47:31.487 : en:01:47:31.487
01:50:21.698 : en:01:50:21.698
01:53:50.282 : en:01:53:50.282
01:57:16.738 : en:01:57:16.738


Свернуть

Скриншоты
Изображение
Изображение
Изображение
Свернуть
Не в сети
Профиль  
Начать новую темуОтветить на тему  [ 1 сообщение ] 
Вы не можете начинать темы
Вы не можете отвечать на сообщения
Вы не можете редактировать свои сообщения
Вы не можете удалять свои сообщения