Правила форума

  • В этом разделе создание новых тем Запрещено.
  • Для создания новых тем пользуйтесь Корневым разделом DVD и HD фильмы.
Начать новую темуОтветить на тему  [ 1 сообщение ] 
Торрент файл
Размер: 8.13 GB • Зарегистрирован: 1 год 5 месяцев • Статус: Проверено
Скачан: 14 раз • Желающих скачать: 0 • Поблагодарили: 2 раза
 Раздают: 0  |  0 KB/s  ]   Качают: 0  |  0 KB/s  ] 
 Полного источника не было 24 дня 
Сообщения
 Добавлено: 2015-07-04 11:01
RG-ELEKTRO
Аватара пользователя
Стаж: 2 года 3 месяца
Сообщений: 7928
Спасибок: 53762
Лайков: 3304
Отель «Мэриголд». Заселение продолжается / The Second Best Exotic Marigold Hotel


Изображение


Год выпуска: 2015
Страна: Великобритания, США (Babieka, Blueprint Pictures)
Жанр: драма, комедия
Продолжительность: 02:02:40
Перевод: Профессиональный (дубляж) ( iTunes ) + Оригинальная звуковая дорожка

Режиссёр: Джон Мэдден
В ролях: Дев Патель, Мэгги Смит, Дэнни Махони, Дэвид Стрэтэйрн, Джуди Денч, Билл Найи, Селия Имри, Рональд Пикап, Диана Хардкэсл, Сабхраджоти Барат
Описание: Отель «Мэриголд» не был бы экзотическим, если бы не поселил двух незнакомых друг с другом людей в один номер; и он не стал бы лучшим, если бы из этого не произошло ничего хорошего.
Мировая премьера: 26 февраля 2015
Премьера в России: 12 марта 2015
Бюджет: $10 000 000
Кассовые сборы: $85 978 266
Изображение Изображение Изображение
Качество: BDRip 720p
Формат: MKV
Видео кодек: MPEG-4 AVC
Аудио кодек: AC3 / DTS
Видео: MPEG-4 AVC, 7409 Кбит/с, 1280x534
Аудио #1: AC3, 3/2 (L,C,R,l,r) + LFE ch, ~384.00 kbps [Профессиональный (дубляж)]
Аудио #2: English: DTS, 6 ch, 1510 Кбит/с [Оригинальная звуковая дорожка]

"MI"

Общее
Уникальный идентификатор : 248703072783690519138591305257350334526 (0xBB1A783209C9596CAE711A9BC678083E)
Полное имя : D:\The.Second.Best.Exotic.Marigold.Hotel.2015.720p.BluRay.DTS.x264-HDAccess.mkv
Формат : Matroska
Версия формата : Version 2
Размер файла : 8,13 Гбайт
Продолжительность : 2 ч. 2 м.
Общий поток : 9491 Кбит/сек
Название фильма : The.Second.Best.Exotic.Marigold.Hotel.2015.1080p.BluRay.DTS.x264-VietHD
Дата кодирования : UTC 2015-07-01 20:13:46
Программа кодирования : mkvmerge v7.9.0 ('Birds') 64bit
Библиотека кодирования : libebml v1.3.1 + libmatroska v1.4.2

Видео
Идентификатор : 1
Формат : AVC
Формат/Информация : Advanced Video Codec
Профиль формата : High@L4.1
Параметр CABAC формата : Да
Параметр ReFrames формата : 12 кадров
Идентификатор кодека : V_MPEG4/ISO/AVC
Продолжительность : 2 ч. 2 м.
Битрейт : 7409 Кбит/сек
Ширина : 1280 пикселей
Высота : 534 пикселя
Соотношение сторон : 2,40:1
Режим частоты кадров : Постоянный
Частота кадров : 23,976 кадра/сек
Цветовое пространство : YUV
Субдискретизация насыщенности : 4:2:0
Битовая глубина : 8 бит
Тип развёртки : Прогрессивная
Бит/(Пиксели*Кадры) : 0.452
Размер потока : 6,35 Гбайт (78%)
Заголовок : The.Second.Best.Exotic.Marigold.Hotel
Библиотека кодирования : x264 core 146 r2538 121396c
Настройки программы : cabac=1 / ref=12 / deblock=1:-3:-3 / analyse=0x3:0x33 / me=umh / subme=11 / psy=1 / psy_rd=1.05:0.05 / mixed_ref=1 / me_range=48 / chroma_me=1 / trellis=2 / 8x8dct=1 / cqm=0 / deadzone=21,11 / fast_pskip=0 / chroma_qp_offset=-3 / threads=12 / lookahead_threads=2 / sliced_threads=0 / nr=0 / decimate=0 / interlaced=0 / bluray_compat=0 / constrained_intra=0 / bframes=9 / b_pyramid=2 / b_adapt=2 / b_bias=0 / direct=1 / weightb=1 / open_gop=0 / weightp=2 / keyint=240 / keyint_min=23 / scenecut=40 / intra_refresh=0 / rc=crf / mbtree=0 / crf=16.0 / qcomp=0.60 / qpmin=0 / qpmax=69 / qpstep=4 / ip_ratio=1.40 / pb_ratio=1.30 / aq=3:0.90
Язык : English
Default : Да
Forced : Нет

Аудио #1
Идентификатор : 2
Формат : AC-3
Формат/Информация : Audio Coding 3
Расширение режима : CM (complete main)
Параметр Endianness формата : Big
Идентификатор кодека : A_AC3
Продолжительность : 2 ч. 2 м.
Вид битрейта : Постоянный
Битрейт : 384 Кбит/сек
Каналы : 6 каналов
Расположение каналов : Front: L C R, Side: L R, LFE
Частота : 48,0 КГц
Битовая глубина : 16 бит
Метод сжатия : С потерями
Размер потока : 337 Мбайт (4%)
Язык : Russian
Default : Да
Forced : Нет

Аудио #2
Идентификатор : 3
Формат : DTS
Формат/Информация : Digital Theater Systems
Идентификатор кодека : A_DTS
Продолжительность : 2 ч. 2 м.
Вид битрейта : Постоянный
Битрейт : 1510 Кбит/сек
Каналы : 6 каналов
Расположение каналов : Front: L C R, Side: L R, LFE
Частота : 48,0 КГц
Битовая глубина : 24 бит
Метод сжатия : С потерями
Размер потока : 1,29 Гбайт (16%)
Заголовок : Original
Язык : English
Default : Нет
Forced : Нет

Текст #1
Идентификатор : 4
Формат : UTF-8
Идентификатор кодека : S_TEXT/UTF8
Идентификатор кодека/Информация : UTF-8 Plain Text
Заголовок : Forced
Язык : English
Default : Да
Forced : Нет

Текст #2
Идентификатор : 5
Формат : UTF-8
Идентификатор кодека : S_TEXT/UTF8
Идентификатор кодека/Информация : UTF-8 Plain Text
Заголовок : Full
Язык : English
Default : Нет
Forced : Нет

Меню
00:00:00.000 : en:00:00:00.000
00:04:14.337 : en:00:04:14.337
00:09:35.867 : en:00:09:35.867
00:15:14.956 : en:00:15:14.956
00:19:20.659 : en:00:19:20.659
00:23:01.797 : en:00:23:01.797
00:28:20.032 : en:00:28:20.032
00:32:28.697 : en:00:32:28.697
00:36:00.784 : en:00:36:00.784
00:39:55.101 : en:00:39:55.101
00:44:39.093 : en:00:44:39.093
00:49:53.407 : en:00:49:53.407
00:53:55.732 : en:00:53:55.732
00:58:33.635 : en:00:58:33.635
01:02:55.271 : en:01:02:55.271
01:05:19.207 : en:01:05:19.207
01:10:42.488 : en:01:10:42.488
01:14:29.882 : en:01:14:29.882
01:17:48.372 : en:01:17:48.372
01:21:25.172 : en:01:21:25.172
01:26:55.627 : en:01:26:55.627
01:30:52.197 : en:01:30:52.197
01:35:17.670 : en:01:35:17.670
01:38:34.742 : en:01:38:34.742
01:44:33.976 : en:01:44:33.976
01:47:40.120 : en:01:47:40.120
01:52:02.925 : en:01:52:02.925
01:56:27.981 : en:01:56:27.981

Свернуть

Скриншоты
Изображение
Изображение
Изображение
Свернуть

Изображение


Изображение Изображение
_________________
Не ищите меня в "ВКонтакте", в "Одноклассниках" меня нет - я на трекерах сижу!
Не в сети
Профиль  
Начать новую темуОтветить на тему  [ 1 сообщение ] 
Вы не можете начинать темы
Вы не можете отвечать на сообщения
Вы не можете редактировать свои сообщения
Вы не можете удалять свои сообщения