Правила форума

  • В этом разделе создание новых тем Запрещено.
  • Для создания новых тем пользуйтесь Корневым разделом DVD и HD фильмы.
Начать новую темуОтветить на тему  [ Сообщений: 2 ] 
Торрент файл
Размер: 13.19 GB • Зарегистрирован: 1 год 4 месяца • Статус: Проверено
Скачан: 106 раз • Желающих скачать: 0 • Поблагодарили: 24 раза
 Раздают: 1  |  0 KB/s  ]   Качают: 0  |  0 KB/s  ] 
Сообщения
 Добавлено: 2015-07-04 11:07
RG-ELEKTRO
Аватара пользователя
Стаж: 2 года 3 месяца
Сообщений: 7928
Спасибок: 53743
Лайков: 3304
Отель «Мэриголд». Заселение продолжается / The Second Best Exotic Marigold Hotel


Изображение


Год выпуска: 2015
Страна: Великобритания, США (Babieka, Blueprint Pictures)
Жанр: драма, комедия
Продолжительность: 02:02:40
Перевод: Профессиональный (дубляж) (iTunes) + Оригинальная звуковая дорожка

Режиссёр: Джон Мэдден
В ролях: Дев Патель, Мэгги Смит, Дэнни Махони, Дэвид Стрэтэйрн, Джуди Денч, Билл Найи, Селия Имри, Рональд Пикап, Диана Хардкэсл, Сабхраджоти Барат
Описание: Отель «Мэриголд» не был бы экзотическим, если бы не поселил двух незнакомых друг с другом людей в один номер; и он не стал бы лучшим, если бы из этого не произошло ничего хорошего.
Мировая премьера: 26 февраля 2015
Премьера в России: 12 марта 2015
Бюджет: $10 000 000
Кассовые сборы: $85 978 266
Изображение Изображение
Качество: BDRip 1080p
Формат: MKV
Видео кодек: MPEG-4 AVC
Аудио кодек: AC3 / DTS
Видео: MPEG-4 AVC, 13200 Кбит/с, 1920x804
Аудио #1: AC3, 3/2 (L,C,R,l,r) + LFE ch, ~384.00 kbps [Профессиональный (дубляж)]
Аудио #2: English: DTS, 6 ch, 1510 Кбит/с [Оригинальная звуковая дорожка]

"MI"
Общее
Уникальный идентификатор : 221231535610156904102943276877335598395 (0xA66FA4D71E288B0882C2BCF20145953B)
Полное имя : C:\The.Second.Best.Exotic.Marigold.Hotel.2015.1080p.BluRay.DTS.x264-VietHD\The.Second.Best.Exotic.Marigold.Hotel.2015.1080p.BluRay.DTS.x264-VietHD.mkv
Формат : Matroska
Версия формата : Version 2
Размер файла : 13,2 Гбайт
Продолжительность : 2 ч. 2 м.
Общий поток : 15,4 Мбит/сек
Название фильма : The.Second.Best.Exotic.Marigold.Hotel.2015.1080p.BluRay.DTS.x264-VietHD
Дата кодирования : UTC 2015-07-01 20:08:54
Программа кодирования : mkvmerge v7.9.0 ('Birds') 64bit
Библиотека кодирования : libebml v1.3.1 + libmatroska v1.4.2
DURATION : 01:55:33.719000000
NUMBER_OF_FRAMES : 1875
NUMBER_OF_BYTES : 66439
_STATISTICS_WRITING_APP : mkvmerge v7.9.0 ('Birds') 64bit
_STATISTICS_WRITING_DATE_UTC : 2015-06-26 07:57:27
_STATISTICS_TAGS : BPS DURATION NUMBER_OF_FRAMES NUMBER_OF_BYTES

Видео
Идентификатор : 1
Формат : AVC
Формат/Информация : Advanced Video Codec
Профиль формата : High@L4.1
Параметр CABAC формата : Да
Параметр ReFrames формата : 5 кадров
Идентификатор кодека : V_MPEG4/ISO/AVC
Продолжительность : 2 ч. 2 м.
Битрейт : 13,2 Мбит/сек
Ширина : 1920 пикселей
Высота : 804 пикселя
Соотношение сторон : 2,40:1
Режим частоты кадров : Постоянный
Частота кадров : 23,976 кадра/сек
Цветовое пространство : YUV
Субдискретизация насыщенности : 4:2:0
Битовая глубина : 8 бит
Тип развёртки : Прогрессивная
Бит/(Пиксели*Кадры) : 0.357
Размер потока : 11,3 Гбайт (86%)
Библиотека кодирования : x264 core 146 r0+2584 6cf85c6 t_mod_Custom [8-bit@all ]
Настройки программы : cabac=1 / ref=5 / deblock=1:-3:-3 / analyse=0x3:0x133 / me=umh / subme=10 / psy=1 / fade_compensate=0.00 / psy_rd=1.00:0.00 / mixed_ref=1 / me_range=24 / chroma_me=1 / trellis=2 / 8x8dct=1 / cqm=0 / deadzone=21,11 / fast_pskip=0 / chroma_qp_offset=-2 / threads=12 / lookahead_threads=2 / sliced_threads=0 / nr=0 / decimate=0 / interlaced=0 / bluray_compat=0 / constrained_intra=0 / fgo=0 / bframes=9 / b_pyramid=2 / b_adapt=2 / b_bias=0 / direct=3 / weightb=1 / open_gop=0 / weightp=2 / keyint=250 / keyint_min=23 / scenecut=40 / intra_refresh=0 / rc_lookahead=60 / rc=crf / mbtree=0 / crf=17.5000 / qcomp=0.65 / qpmin=0:0:0 / qpmax=69:69:69 / qpstep=4 / vbv_maxrate=62500 / vbv_bufsize=78125 / crf_max=0.0 / nal_hrd=none / filler=0 / ip_ratio=1.40 / pb_ratio=1.30 / aq=3:0.80 / aq-sensitivity=10.00 / aq-factor=1.00:1.00:1.00 / aq2=0 / aq3=0
Язык : English
Default : Да
Forced : Нет
Цветовой диапазон : Limited
Коэффициенты матрицы : BT.709
DURATION : 02:02:40.395000000
NUMBER_OF_FRAMES : 176473
NUMBER_OF_BYTES : 12418998299
_STATISTICS_WRITING_APP : mkvmerge v7.9.0 ('Birds') 64bit
_STATISTICS_WRITING_DATE_UTC : 2015-06-26 07:57:27
_STATISTICS_TAGS : BPS DURATION NUMBER_OF_FRAMES NUMBER_OF_BYTES

Аудио #1
Идентификатор : 2
Формат : AC-3
Формат/Информация : Audio Coding 3
Расширение режима : CM (complete main)
Параметр Endianness формата : Big
Идентификатор кодека : A_AC3
Продолжительность : 2 ч. 2 м.
Вид битрейта : Постоянный
Битрейт : 384 Кбит/сек
Каналы : 6 каналов
Расположение каналов : Front: L C R, Side: L R, LFE
Частота : 48,0 КГц
Метод сжатия : С потерями
Размер потока : 337 Мбайт (2%)
Язык : Russian
Default : Да
Forced : Нет

Аудио #2
Идентификатор : 3
Формат : DTS
Формат/Информация : Digital Theater Systems
Режим : 16
Параметр Endianness формата : Big
Идентификатор кодека : A_DTS
Продолжительность : 2 ч. 2 м.
Вид битрейта : Постоянный
Битрейт : 1510 Кбит/сек
Каналы : 6 каналов
Расположение каналов : Front: L C R, Side: L R, LFE
Частота : 48,0 КГц
Битовая глубина : 24 бит
Метод сжатия : С потерями
Размер потока : 1,29 Гбайт (10%)
Язык : English
Default : Нет
Forced : Нет

Текст #1
Идентификатор : 4
Формат : UTF-8
Идентификатор кодека : S_TEXT/UTF8
Идентификатор кодека/Информация : UTF-8 Plain Text
Язык : English
Default : Нет
Forced : Нет

Текст #2
Идентификатор : 5
Формат : UTF-8
Идентификатор кодека : S_TEXT/UTF8
Идентификатор кодека/Информация : UTF-8 Plain Text
Язык : English
Default : Нет
Forced : Нет

Меню
00:00:00.000 : en:00:00:00.000
00:04:14.337 : en:00:04:14.337
00:09:35.867 : en:00:09:35.867
00:15:14.956 : en:00:15:14.956
00:19:20.659 : en:00:19:20.659
00:23:01.797 : en:00:23:01.797
00:28:20.032 : en:00:28:20.032
00:32:28.697 : en:00:32:28.697
00:36:00.784 : en:00:36:00.784
00:39:55.101 : en:00:39:55.101
00:44:39.093 : en:00:44:39.093
00:49:53.407 : en:00:49:53.407
00:53:55.732 : en:00:53:55.732
00:58:33.635 : en:00:58:33.635
01:02:55.271 : en:01:02:55.271
01:05:19.207 : en:01:05:19.207
01:10:42.488 : en:01:10:42.488
01:14:29.882 : en:01:14:29.882
01:17:48.372 : en:01:17:48.372
01:21:25.172 : en:01:21:25.172
01:26:55.627 : en:01:26:55.627
01:30:52.197 : en:01:30:52.197
01:35:17.670 : en:01:35:17.670
01:38:34.742 : en:01:38:34.742
01:44:33.976 : en:01:44:33.976
01:47:40.120 : en:01:47:40.120
01:52:02.925 : en:01:52:02.925
01:56:27.981 : en:01:56:27.981




Свернуть

Скриншоты
Изображение
Изображение
Изображение
Свернуть

Изображение


Изображение Изображение
_________________
Не ищите меня в "ВКонтакте", в "Одноклассниках" меня нет - я на трекерах сижу!
Не в сети
Профиль  
 Добавлено: 2015-07-07 18:48 (спустя 3 дня)
Кинокомментатор
Аватара пользователя
Стаж: 9 лет
Сообщений: 1331
Лайков: 52
хорошее кино!) милое и позитивное... с индийским видением жизни и американским сюжетом) в общем Индия скоро будет в фаворе, а фильм... посмотрите) но посмотрите ещё фильм с Девом Пателем "ПиКей" !)
приятного просмотра;)
Не в сети
Профиль  
Начать новую темуОтветить на тему  [ Сообщений: 2 ] 
Вы не можете начинать темы
Вы не можете отвечать на сообщения
Вы не можете редактировать свои сообщения
Вы не можете удалять свои сообщения