Правила форума

  • В этом разделе создание новых тем Запрещено.
  • Для создания новых тем пользуйтесь Корневым разделом DVD и HD фильмы.
Начать новую темуОтветить на тему  [ Сообщений: 8 ] 
Торрент файл
Размер: 4.07 GB • Зарегистрирован: 2 года 11 месяцев • Статус: T Временный релиз
Скачан: 58 раз • Желающих скачать: 0 • Поблагодарили: 36 раз
 Раздают: 0  |  0 KB/s  ]   Качают: 0  |  0 KB/s  ] 
 Полного источника не было 6 месяцев 
Сообщения
 Добавлено: 2013-12-11 16:57
Аватара пользователя
Стаж: 7 лет 2 месяца
Сообщений: 7167
Спасибок: 82002
Лайков: 2438
Открытая могила / Open Grave

Изображение


Год выпуска: 2013
Страна: США
Жанр: ужасы
Продолжительность: 01:42:12
Перевод: Профессиональный (одноголосый закадровый) + Оригинальная звуковая дорожка

Режиссёр: Гонсало Лопес-Гальего
В ролях: Шарлто Копли, Джозеф Морган, Томас Кречман, Эрин Ричардс, Джози Хо, Макс Роттсли, Кати Домби, Ева Ботос, Марта Сабо, М. Фрайкс
Описание: История человека, который однажды обнаруживает себя в яме в окружении трупов. При этом он ничего не помнит, не знает, кто он, откуда и как сюда попал. С помощью товарищей по несчастью, тоже потерявших память, он должен вычислить убийцу, который, по всей вероятности, находится среди них.
Изображение

Качество: BDRip 720p
Формат: MKV
Видео кодек: H264 (AVC)
Аудио кодек: AC3 (Dolby Digital)
Видео: 1 280х528, 23.976 fps, 4 497 Kbps
Аудио #1: 48.0 KHz, 6 ch, 448 Kbps [Профессиональный (одноголосый закадровый)] Xixidok
Аудио #2: 48.0 KHz, 6 ch, 448 Kbps [Оригинальная звуковая дорожка]
Изображение
Скриншоты
Изображение

Изображение

Изображение

Изображение

Изображение
Свернуть
MI
General
Unique ID : 226968944433424501928785938858594952479 (0xAAC0A0EF67AA2E2CAE6BE108DB5A651F)
Complete name : Открытая могила.2013.mkv
Format : Matroska
Format version : Version 2
File size : 4.07 GiB
Duration : 1h 42mn
Overall bit rate : 5 698 Kbps
Encoded date : UTC 2013-12-11 00:54:00
Writing application : mkvmerge v6.6.0 ('The Edge Of The In Between') built on Dec 1 2013 17:55:00
Writing library : libebml v1.3.0 + libmatroska v1.4.1

Video
ID : 1
Format : AVC
Format/Info : Advanced Video Codec
Format profile : High@L4.1
Format settings, CABAC : Yes
Format settings, ReFrames : 12 frames
Codec ID : V_MPEG4/ISO/AVC
Duration : 1h 42mn
Bit rate : 4 497 Kbps
Width : 1 280 pixels
Height : 528 pixels
Display aspect ratio : 2.40:1
Frame rate : 24.000 fps
Color space : YUV
Chroma subsampling : 4:2:0
Bit depth : 8 bits
Scan type : Progressive
Bits/(Pixel*Frame) : 0.277
Stream size : 3.21 GiB (79%)
Language : English
Default : Yes
Forced : No

Audio #1
ID : 2
Format : AC-3
Format/Info : Audio Coding 3
Mode extension : CM (complete main)
Format settings, Endianness : Big
Codec ID : A_AC3
Duration : 1h 42mn
Bit rate mode : Constant
Bit rate : 448 Kbps
Channel(s) : 6 channels
Channel positions : Front: L C R, Side: L R, LFE
Sampling rate : 48.0 KHz
Bit depth : 16 bits
Compression mode : Lossy
Stream size : 327 MiB (8%)
Title : одноголосный [Xixidok]
Language : Russian
Default : Yes
Forced : Yes

Audio #2
ID : 3
Format : AC-3
Format/Info : Audio Coding 3
Mode extension : CM (complete main)
Format settings, Endianness : Big
Codec ID : A_AC3
Duration : 1h 42mn
Bit rate mode : Constant
Bit rate : 640 Kbps
Channel(s) : 6 channels
Channel positions : Front: L C R, Side: L R, LFE
Sampling rate : 48.0 KHz
Bit depth : 16 bits
Compression mode : Lossy
Stream size : 468 MiB (11%)
Title : оригинал
Language : English
Default : No
Forced : No

Menu
00:00:00.000 : en:00:00:00.000
00:12:34.375 : en:00:12:34.375
00:20:01.875 : en:00:20:01.875
00:26:48.667 : en:00:26:48.667
00:39:16.875 : en:00:39:16.875
00:46:26.625 : en:00:46:26.625
00:56:17.333 : en:00:56:17.333
01:03:25.208 : en:01:03:25.208
01:14:28.750 : en:01:14:28.750
01:24:17.708 : en:01:24:17.708
Свернуть
 zima-letoru и rotametr нравится это.
Не в сети
Профиль  
 Добавлено: 2013-12-11 19:50 (спустя 2 часа 53 минуты)
Аватара пользователя
Стаж: 6 лет 2 месяца
Возраст: 23
Сообщений: 37
Спасибок: 16
Лайков: 1
Спасибо! :co_ol:
_________________
Будь внимателен - и тебе воздастся!
Не в сети
Профиль  
 Добавлено: 2013-12-12 15:01 (спустя 19 часов)
Стаж: 6 лет 6 месяцев
Сообщений: 175
Лайков: 2
Жутковато :sh_ok: Спасибо.
Не в сети
Профиль  
 Добавлено: 2013-12-14 02:07 (спустя 1 день 11 часов)
Аватара пользователя
Стаж: 6 лет 8 месяцев
Возраст: 30
Сообщений: 89
Лайков: 6
Офигенный фильм! сюжет нормальный не совсем замыленный.Смотреть было интересно .
Не в сети
Профиль  
 Добавлено: 2013-12-14 12:11 (спустя 10 часов)
Аватара пользователя
Стаж: 4 года 10 месяцев
Возраст: 29
Сообщений: 86
Лайков: 1

Mahaon_ultra:

Офигенный фильм! сюжет нормальный не совсем замыленный.Смотреть было интересно .
+ неплохой фильм))))
Не в сети
Профиль  
 Добавлено: 2013-12-16 18:23 (спустя 2 дня 6 часов)
Стаж: 2 года 11 месяцев
Сообщений: 21
спасибо!
_________________
Быстрый , стабильный заработок , без начальных вложений , до 30 $ в день , попробуйте и убедитесь сами
http://vk.com/club63014972, здесь все подробно описано , начните зарабатывать уже сегодня.
если что-то непонятно , постучите в скайп rinat_flash , все объясню и покажу.
Не в сети
Профиль  
 Добавлено: 2014-01-03 05:31 (спустя 17 дней)
Стаж: 7 лет 8 месяцев
Возраст: 26
Сообщений: 37
Да,не плохо.Но скучновато местами.
Не в сети
Профиль  
 Добавлено: 2014-01-06 14:14 (спустя 3 дня)
Аватара пользователя
Стаж: 6 лет 4 месяца
Возраст: 25
Сообщений: 50
Фильм хороший, но перевод, это п...
Не в сети
Профиль  
Начать новую темуОтветить на тему  [ Сообщений: 8 ] 
Вы не можете начинать темы
Вы не можете отвечать на сообщения
Вы не можете редактировать свои сообщения
Вы не можете удалять свои сообщения