Правила форума

  • В этом разделе создание новых тем Запрещено.
  • Для создания новых тем пользуйтесь Корневым разделом DVD и HD фильмы.
Начать новую темуОтветить на тему  [ 1 сообщение ] 
Торрент файл
Размер: 10.79 GB • Зарегистрирован: 5 лет 3 месяца • Статус: Проверено
Скачан: 38 раз • Желающих скачать: 0 • Поблагодарили: 10 раз
 Раздают: 0  |  0 KB/s  ]   Качают: 0  |  0 KB/s  ] 
 Полного источника не было 6 часов 
Сообщения
 Добавлено: 2011-08-24 20:59
Модератор релиз-группы
Аватара пользователя
Стаж: 9 лет 1 месяц
Возраст: 97
Сообщений: 11659
Спасибок: 6532
Лайков: 269
Отпетые мошенники / Dirty Rotten Scoundrels

Изображение


Год выпуска: 1988
Страна: cif
Жанр: комедия, криминал
Продолжительность: 01:50:21
Перевод: Профессиональный (многоголосый закадровый)
Профессиональный (двухголосый закадровый)
Профессиональный (дубляж)
Дублеры: Виталий Соломин,Юльен Балмусов,Ирина Савина,Владимир Ферапонтов,Наталья Гурзо
Авторский одноголосый (Михалев)
Оригинальная звуковая дорожка
Субтитры: русские (2 варианта), английские

Режиссёр: Фрэнк Оз / Frank Oz
В ролях: Стив Мартин, Майкл Кейн, Гленн Хедли, Антон Роджерс, Барбара Харрис, Иэн МакДайармид, Дэна Айви, Меган Фэй, Фрэнсис Конрой, Николь Кальфан, Айна Валле, Шерил Пэй, Натали Оффре, Лолли Сьюзи, Руперт Холидэй-Эванс, Хепберн Грэхэм, Ксавье Мали, Андре Пенверн, Луис Зорик, Жорж Джеррард Баффо, Валери Бофил, Патриция Дэвидсон
Описание: Судьба сводит двух «отпетых мошенников» — Фредди Бенсона и Лоуренса Джемисона, специализирующихся в качестве жиголо в оболванивании богатеньких дам. В городке, где-то на юге Франции, Фредди сначала берет уроки у мэтра Лоуренса, но, повздорив, коллеги заключают пари: кто из них первый охмурит незнакомую богатую женщину, тот остается в городе, а проигравший должен убраться. Предмет спора не замедлил явиться в виде симпатичной и обаятельной «мыльной королевы» Америки — Дженет.

Изображение
Качество: BDRip
Формат: mkv
Видео кодек: MPEG-4
Аудио кодек: AC3 (Dolby Digital)
Видео: MPEG-4 AVC Video 11460 kbps 1920 x 1040 p / 23.976 fps / 1.846 : 1 / High Profile 4.1
Аудио #1: Dolby Digital Audio Russian 2.0 / 48 kHz / 192 kbps [Профессиональный (многоголосый закадровый)]
Аудио #2: Dolby Digital Audio Russian 2.0 / 48 kHz / 192 kbps [Профессиональный (двухголосый закадровый)]
Аудио #3: Dolby Digital Audio Russian 2.0 / 48 kHz / 192 kbps [Профессиональный (дубляж)]
Аудио #4: Dolby Digital Audio Russian 5.1 / 48 kHz / 448 kbps [Авторский одноголосый (Михалев)]
Аудио #5: DTS Audio English 5.1 / 48 kHz / 1509 kbps / 24-bit [Оригинальная звуковая дорожка]
Субтитры: русские (2 варианта), английские
Скриншоты
Изображение

Изображение

Изображение

Изображение

Изображение

Изображение
Свернуть

Mi
Format : Matroska
File size : 10.8 GiB
Duration : 1h 50mn
Overall bit rate : 14.0 Mbps
Movie name : Dirty.Rotten.Scoundrels.1988.BluRay.1080p.DTS.x264-CHD [rutracker.org]
Encoded date : UTC 2011-08-23 21:30:21
Writing application : mkvmerge v4.9.1 ('Ich will') сборка от Jul 11 2011 23:53:15
Writing library : libebml v1.2.1 + libmatroska v1.1.1

Video
ID : 1
Format : AVC
Format/Info : Advanced Video Codec
Format profile : High@L4.1
Format settings, CABAC : Yes
Format settings, ReFrames : 8 frames
Muxing mode : Container profile=Unknown@4.1
Codec ID : V_MPEG4/ISO/AVC
Duration : 1h 50mn
Bit rate : 11.5 Mbps
Width : 1 920 pixels
Height : 1 040 pixels
Display aspect ratio : 16:9
Frame rate : 23.976 fps
Color space : YUV
Chroma subsampling : 4:2:0
Bit depth : 8 bits
Scan type : Progressive
Bits/(Pixel*Frame) : 0.239
Stream size : 8.62 GiB (80%)
Writing library : x264 core 80 r1376M 3feaec2
Encoding settings : cabac=1 / ref=9 / deblock=1:-3:-3 / analyse=0x3:0x113 / me=umh / subme=9 / psy=1 / psy_rd=1.0:0.0 / mixed_ref=1 / me_range=32 / chroma_me=1 / trellis=0 / 8x8dct=1 / cqm=0 / deadzone=21,11 / fast_pskip=1 / chroma_qp_offset=-2 / threads=12 / sliced_threads=0 / slices=4 / nr=0 / decimate=1 / mbaff=0 / constrained_intra=0 / bframes=6 / b_pyramid=1 / b_adapt=1 / b_bias=0 / direct=1 / wpredb=1 / wpredp=2 / keyint=24 / keyint_min=2 / scenecut=40 / rc_lookahead=24 / rc=2pass / mbtree=1 / bitrate=11460 / ratetol=1.0 / qcomp=0.60 / qpmin=10 / qpmax=51 / qpstep=4 / cplxblur=20.0 / qblur=0.5 / ip_ratio=1.40 / aq=1:1.00
Language : English

Audio #1
ID : 2
Format : AC-3
Format/Info : Audio Coding 3
Mode extension : CM (complete main)
Codec ID : A_AC3
Duration : 1h 50mn
Bit rate mode : Constant
Bit rate : 192 Kbps
Channel(s) : 2 channels
Channel positions : Front: L R
Sampling rate : 48.0 KHz
Bit depth : 16 bits
Stream size : 152 MiB (1%)
Title : MVO [НТВ]
Language : Russian

Audio #2
ID : 3
Format : AC-3
Format/Info : Audio Coding 3
Mode extension : CM (complete main)
Codec ID : A_AC3
Duration : 1h 50mn
Bit rate mode : Constant
Bit rate : 192 Kbps
Channel(s) : 2 channels
Channel positions : Front: L R
Sampling rate : 48.0 KHz
Bit depth : 16 bits
Stream size : 152 MiB (1%)
Title : MVO [РТР, 1997 г.]
Language : Russian

Audio #3
ID : 4
Format : AC-3
Format/Info : Audio Coding 3
Mode extension : CM (complete main)
Codec ID : A_AC3
Duration : 1h 50mn
Bit rate mode : Constant
Bit rate : 192 Kbps
Channel(s) : 2 channels
Channel positions : Front: L R
Sampling rate : 48.0 KHz
Bit depth : 16 bits
Stream size : 152 MiB (1%)
Title : Dub
Language : Russian

Audio #4
ID : 5
Format : AC-3
Format/Info : Audio Coding 3
Mode extension : CM (complete main)
Codec ID : A_AC3
Duration : 1h 50mn
Bit rate mode : Constant
Bit rate : 448 Kbps
Channel(s) : 6 channels
Channel positions : Front: L C R, Side: L R, LFE
Sampling rate : 48.0 KHz
Bit depth : 16 bits
Stream size : 354 MiB (3%)
Title : AVO [Михалев]
Language : Russian

Audio #5
ID : 6
Format : DTS
Format/Info : Digital Theater Systems
Codec ID : A_DTS
Duration : 1h 50mn
Bit rate mode : Constant
Bit rate : 1 510 Kbps
Channel(s) : 6 channels
Channel positions : Front: L C R, Side: L R, LFE
Sampling rate : 48.0 KHz
Bit depth : 24 bits
Stream size : 1.16 GiB (11%)
Language : English

Text #1
ID : 7
Format : UTF-8
Codec ID : S_TEXT/UTF8
Codec ID/Info : UTF-8 Plain Text
Title : v.1 [R5]
Language : Russian

Text #2
ID : 8
Format : UTF-8
Codec ID : S_TEXT/UTF8
Codec ID/Info : UTF-8 Plain Text
Title : v.2
Language : Russian

Text #3
ID : 9
Format : UTF-8
Codec ID : S_TEXT/UTF8
Codec ID/Info : UTF-8 Plain Text
Title : SDH
Language : English

Menu
00:00:00.000 : en:00:00:00.000
00:08:08.238 : en:00:08:08.238
00:18:47.126 : en:00:18:47.126
00:23:50.304 : en:00:23:50.304
00:29:23.553 : en:00:29:23.553
00:32:37.747 : en:00:32:37.747
00:40:01.107 : en:00:40:01.107
00:47:10.036 : en:00:47:10.036
00:56:19.459 : en:00:56:19.459
01:04:24.152 : en:01:04:24.152
01:10:00.530 : en:01:10:00.530
01:16:26.749 : en:01:16:26.749
01:24:23.684 : en:01:24:23.684
01:28:24.049 : en:01:28:24.049
01:34:02.178 : en:01:34:02.178
01:41:53.399 : en:01:41:53.399
Свернуть
_________________
Изображение
Не в сети
Профиль  
Начать новую темуОтветить на тему  [ 1 сообщение ] 
Вы не можете начинать темы
Вы не можете отвечать на сообщения
Вы не можете редактировать свои сообщения
Вы не можете удалять свои сообщения