Правила форума

  • В этом разделе создание новых тем Запрещено.
  • Для создания новых тем пользуйтесь Корневым разделом DVD и HD фильмы.
Начать новую темуОтветить на тему  [ Сообщений: 6 ] 
Торрент файл
Размер: 17.89 GB • Зарегистрирован: 3 года 8 месяцев • Статус: Проверено
Скачан: 22 раза • Желающих скачать: 0 • Поблагодарили: 6 раз
 Раздают: 0  |  0 KB/s  ]   Качают: 0  |  0 KB/s  ] 
 Полного источника не было 2 года 4 месяца 
Сообщения
 Добавлено: 2013-04-08 11:46
Модератор релиз-группы
Аватара пользователя
Стаж: 9 лет 1 месяц
Возраст: 97
Сообщений: 11660
Спасибок: 6534
Лайков: 269
Отряд героев / Company of Heroes

Изображение


Год выпуска: 2013
Страна: США (Sony Pictures Home Entertainment)
Жанр: боевик, военный
Продолжительность: 01:40:28
Перевод: Профессиональный многоголосый

Режиссёр: Дон Майкл Пол

В ролях: Дмитрий Дьяченко, Винни Джонс, Нил МакДонаф, Том Сайзмор, Юрген Прохнов, Чад Коллинз, Мелиа Крейлинг
Описание: Американские солдаты, попавшие в тыл врага во время Второй мировой войны, узнают, что у Гитлера есть модернизированная бомба.
Несмотря на все трудности, они отправляются на поиски ученого, отвечающего за эту бомбу.
Изображение

Качество: BDRemux 1080p
Формат: MKV
Видео: MPEG-4 AVC, 25.1 Mбит/с, 1920x1080
Аудио #1: Русский (AC3, 6 ch, 384 Кбит/с)
Субтитры: Русские
Сохранены оригинальные чаптеры
MediaInfo
Format : Matroska
Format version : Version 4 / Version 2
File size : 17.9 GiB
Duration : 1h 40mn
Overall bit rate mode : Variable
Overall bit rate : 25.5 Mbps
Movie name : Denils
Encoded date : UTC 2013-04-08 08:16:57
Writing application : mkvmerge v6.1.0 ('Old Devil') built on Mar 2 2013 14:32:37
Writing library : libebml v1.3.0 + libmatroska v1.4.0

Video
ID : 1
Format : AVC
Format/Info : Advanced Video Codec
Format profile : High@L4.1
Format settings, CABAC : Yes
Format settings, ReFrames : 2 frames
Codec ID : V_MPEG4/ISO/AVC
Duration : 1h 40mn
Bit rate mode : Variable
Bit rate : 24.6 Mbps
Width : 1 920 pixels
Height : 1 080 pixels
Display aspect ratio : 16:9
Frame rate mode : Constant
Frame rate : 23.976 fps
Color space : YUV
Chroma subsampling : 4:2:0
Bit depth : 8 bits
Scan type : Progressive
Bits/(Pixel*Frame) : 0.495
Stream size : 17.3 GiB (97%)
Language : English
Default : No
Forced : No

Audio
ID : 2
Format : AC-3
Format/Info : Audio Coding 3
Mode extension : CM (complete main)
Format settings, Endianness : Big
Codec ID : A_AC3
Duration : 1h 40mn
Bit rate mode : Constant
Bit rate : 384 Kbps
Channel(s) : 6 channels
Channel positions : Front: L C R, Side: L R, LFE
Sampling rate : 48.0 KHz
Bit depth : 16 bits
Compression mode : Lossy
Stream size : 276 MiB (2%)
Title : DD 5.1 @ 384 kbps - MVO, R5
Language : Russian
Default : Yes
Forced : Yes

Text
ID : 3
Format : UTF-8
Codec ID : S_TEXT/UTF8
Codec ID/Info : UTF-8 Plain Text
Language : Russian
Default : No
Forced : No

Menu
00:00:00.000 : en:00:00:00.000
00:05:59.401 : en:00:05:59.401
00:11:24.809 : en:00:11:24.809
00:15:57.290 : en:00:15:57.290
00:22:15.876 : en:00:22:15.876
00:28:56.860 : en:00:28:56.860
00:34:36.533 : en:00:34:36.533
00:42:13.740 : en:00:42:13.740
00:46:32.790 : en:00:46:32.790
00:53:27.371 : en:00:53:27.371
00:59:41.620 : en:00:59:41.620
01:05:14.911 : en:01:05:14.911
01:11:46.385 : en:01:11:46.385
01:19:12.748 : en:01:19:12.748
01:23:54.780 : en:01:23:54.780
01:28:59.125 : en:01:28:59.125




Свернуть

Скриншоты
Изображение

Изображение

Изображение

Изображение
Свернуть
_________________
Изображение
Не в сети
Профиль  
 Добавлено: 2013-04-08 22:55 (спустя 11 часов)
Аватара пользователя
Стаж: 5 лет 10 месяцев
Сообщений: 44
Что за филь?!?!очердная :ze_le_ny: ?
Не в сети
Профиль  
 Добавлено: 2013-04-09 19:45 (спустя 20 часов)
Аватара пользователя
Стаж: 8 лет 11 месяцев
Сообщений: 518
Спасибок: 39
Лайков: 49
Миленький трэшачок. Ну и естественно рейтинги фильма преднамеренно непоказаны. Там наверное 3 с натяжкой. И о да, конечно же танк в фильме присутствует, его там снимали, но он не поехал, и не стрелял, пришлось вырезать, поэтому танк присутствует только на обложке коробки диска.
Не в сети
Профиль  
 Добавлено: 2013-04-09 22:04 (спустя 2 часа 19 минут)
Модератор релиз-группы
Аватара пользователя
Стаж: 9 лет 1 месяц
Возраст: 97
Сообщений: 11660
Спасибок: 6534
Лайков: 269

Микки:

рейтинги фильма преднамеренно непоказаны

эх не угадал, тут лень причина отсутствия столь нужного тебе рейтинга фильма и что, самому было лень на кинопоиске или imbd глянуть
и написать, мол рейтинг этого шедевра 3.944 (123); IMDb: 5.10 (1 756), а не предъявлять релизёру за то, что кто то остался без этих цЫфирей :men:
да и зачем показывать, такие вот рецензоры отпишутся и всё всем станет ясно
эх, благодарные юзвери ннтт
зы. не смотрел, пока не собираюсь и когда это произойдёт :ne_znayu:
Cкрытый текст
:-D
Свернуть
_________________
Изображение
Не в сети
Профиль  
 Добавлено: 2013-04-10 07:18 (спустя 9 часов)
Top-releaser
Аватара пользователя
Стаж: 8 лет 7 месяцев
Сообщений: 1286
Спасибок: 3421
Лайков: 7
на кинопоиске 2012 год указан :)
Не в сети
Профиль  
 Добавлено: 2013-04-10 10:42 (спустя 3 часа)
Модератор релиз-группы
Аватара пользователя
Стаж: 9 лет 1 месяц
Возраст: 97
Сообщений: 11660
Спасибок: 6534
Лайков: 269
:ne_znayu:
Изображение
Свернуть
_________________
Изображение
Не в сети
Профиль  
Начать новую темуОтветить на тему  [ Сообщений: 6 ] 
Вы не можете начинать темы
Вы не можете отвечать на сообщения
Вы не можете редактировать свои сообщения
Вы не можете удалять свои сообщения