Правила форума

  • В этом разделе создание новых тем Запрещено.
  • Для создания новых тем пользуйтесь Корневым разделом DVD и HD фильмы.
Начать новую темуОтветить на тему  [ Сообщений: 3 ] 
Торрент файл
Размер: 4.66 GB • Зарегистрирован: 4 года 8 месяцев • Статус: Проверено
Скачан: 136 раз • Желающих скачать: 0 • Поблагодарили: 12 раз
 Раздают: 0  |  0 KB/s  ]   Качают: 0  |  0 KB/s  ] 
 Полного источника не было 3 года 2 месяца 
Сообщения
 Добавлено: 2012-03-08 14:07
Top-seeder
Аватара пользователя
Стаж: 9 лет
Сообщений: 1399
Спасибок: 28651
Лайков: 8
Отряд особого назначения / Forces speciales

Изображение


Страна: Франция
Студия: Easy Company, Studio Canal, Canal+
Жанр: Боевик, драма, приключения
Год выпуска: 2011
Продолжительность: 01:48:46

Перевод: Профессиональный (дублированный)
Cубтитры:
Украинские
Английские

Премьера (мир): 2 ноября 2011
Премьера (РФ): 3 ноября 2011, «Top Film Distribution»
Релиз на DVD: 1 декабря 2011, «New Dream media», «Новый Диск»

Режиссер: Стефан Рибожа / Stéphane Rybojad

В ролях: Дайан Крюгер, Джимон Хунсу, Бенуа Мажимель, Дэнис Меночет, Рафаэль Персонас, Ален Фиглаж, Ален Аливон, Мехди Неббу, Раз Деган, Чеки Карио...

Описание: Молодая французская журналистка похищена в Афганистане талибами. Правительство Франции отказывается выполнять условия похитителей. Тогда талибы размещают в Интернете жестокое видео с обратным отсчетом времени до ее казни. На выручку девушке отправляется элитный отряд французского спецназа. Но мало отбить жертву у бандитов, нужно еще вывести ее на Большую землю. Возвращение домой становится крестным путем и для гражданской журналистки, и для бывалых вояк-спецназовцев.

Тип релиза: BDRip 720p
Контейнер: MKV

Видео: H.264, 4235 kbps, 1280x536, 24.000 fps
Аудио 1: [Русский] AC3, 384 kb/s (6 ch)
Аудио 2: [Французский] DTS, 1510 kb/s (6 ch)
Формат субтитров: softsub (SRT)

MI
Общее
Уникальный идентификатор : 170781254985924760894227923962414281679 (0x807B45F672980E328E6B2B099DB8B3CF)
Полное имя : D:\Закачки\Отряд особого назначения.mkv
Формат : Matroska
Размер файла : 4,66 Гбайт
Продолжительность : 1 ч. 48 м.
Общий поток : 6130 Кбит/сек
Название фильма : Forces Speciales (2011)
Дата кодирования : UTC 2012-03-07 11:16:36
Программа кодирования : mkvmerge v5.2.0 ('I can't explain') built on Dec 18 2011 18:12:03
Библиотека кодирования : libebml v1.2.3 + libmatroska v1.3.0

Видео
Идентификатор : 1
Формат : AVC
Формат/Информация : Advanced Video Codec
Профиль формата : High@L4.1
Параметр CABAC формата : Да
Параметр ReFrames формата : 5 кадров
Параметры GOP формата : M=4, N=24
Идентификатор кодека : V_MPEG4/ISO/AVC
Продолжительность : 1 ч. 48 м.
Битрейт : 4235 Кбит/сек
Ширина : 1280 пикс.
Высота : 536 пикс.
Соотношение сторон : 2,35:1
Частота кадров : 24,000 кадр/сек
Цветовое пространство : YUV
Подвыборка цветности : 4:2:0
Битовая глубина : 8 бит
Тип развёртки : Прогрессивная
Бит/(Пиксели*Кадры) : 0.257
Размер потока : 3,13 Гбайт (67%)
Заголовок : Forces Speciales (2011) - Released by IronClub.TV
Библиотека кодирования : x264 core 120 r2164 da19765
Настройки программы : cabac=1 / ref=5 / deblock=1:0:0 / analyse=0x3:0x113 / me=umh / subme=7 / psy=1 / psy_rd=1.00:0.00 / mixed_ref=1 / me_range=16 / chroma_me=1 / trellis=1 / 8x8dct=1 / cqm=0 / deadzone=21,11 / fast_pskip=0 / chroma_qp_offset=-2 / threads=18 / sliced_threads=0 / nr=0 / decimate=1 / interlaced=0 / bluray_compat=0 / constrained_intra=0 / bframes=3 / b_pyramid=2 / b_adapt=1 / b_bias=0 / direct=1 / weightb=1 / open_gop=0 / weightp=2 / keyint=250 / keyint_min=24 / scenecut=40 / intra_refresh=0 / rc_lookahead=40 / rc=2pass / mbtree=1 / bitrate=4235 / ratetol=1.0 / qcomp=0.60 / qpmin=0 / qpmax=69 / qpstep=4 / cplxblur=20.0 / qblur=0.5 / ip_ratio=1.40 / aq=1:1.00
Язык : French

Аудио #1
Идентификатор : 2
Формат : AC-3
Формат/Информация : Audio Coding 3
Расширение режима : CM (complete main)
Идентификатор кодека : A_AC3
Продолжительность : 1 ч. 48 м.
Вид битрейта : Постоянный
Битрейт : 384 Кбит/сек
Каналы : 6 каналов
Расположение каналов : Front: L C R, Side: L R, LFE
Частота : 48,0 КГц
Битовая глубина : 16 бит
Метод сжатия : С потерями
Размер потока : 299 Мбайт (6%)
Заголовок : DD 5.1 @ 384 kbps - Dub, R5
Язык : Russian

Аудио #2
Идентификатор : 3
Формат : DTS
Формат/Информация : Digital Theater Systems
Идентификатор кодека : A_DTS
Продолжительность : 1 ч. 48 м.
Вид битрейта : Постоянный
Битрейт : 1510 Кбит/сек
Каналы : 6 каналов
Расположение каналов : Front: L C R, Side: L R, LFE
Частота : 48,0 КГц
Битовая глубина : 24 бит
Метод сжатия : С потерями
Размер потока : 1,15 Гбайт (25%)
Заголовок : DTS 5.1 @ 1536 kbps
Язык : French

Текст #1
Идентификатор : 4
Формат : UTF-8
Идентификатор кодека : S_TEXT/UTF8
Идентификатор кодека/Информация : UTF-8 Plain Text
Язык : Ukrainian

Текст #2
Идентификатор : 5
Формат : UTF-8
Идентификатор кодека : S_TEXT/UTF8
Идентификатор кодека/Информация : UTF-8 Plain Text
Язык : English

Свернуть

Скриншоты
ИзображениеИзображениеИзображениеИзображениеИзображениеИзображение
Свернуть
Не в сети
Профиль  
 Добавлено: 2012-03-19 23:32 (спустя 11 дней)
Аватара пользователя
Стаж: 7 лет 10 месяцев
Сообщений: 24
отичный фильм :hi_hi_hi:
Не в сети
Профиль  
 Добавлено: 2012-04-21 06:06 (спустя 1 месяц 1 день)
Аватара пользователя
Стаж: 7 лет 9 месяцев
Сообщений: 140
Лайков: 26
потрясный фильм :co_ol: молодцы французы :bra_vo:
Не в сети
Профиль  
Начать новую темуОтветить на тему  [ Сообщений: 3 ] 
Вы не можете начинать темы
Вы не можете отвечать на сообщения
Вы не можете редактировать свои сообщения
Вы не можете удалять свои сообщения