Правила форума

  • В этом разделе создание новых тем Запрещено.
  • Для создания новых тем пользуйтесь Корневым разделом DVD и HD фильмы.
Начать новую темуОтветить на тему  [ Сообщений: 5 ] 
Торрент файл
Размер: 7.94 GB • Зарегистрирован: 4 года 8 месяцев • Статус: Проверено
Скачан: 325 раз • Желающих скачать: 0 • Поблагодарили: 36 раз
 Раздают: 1  |  0 KB/s  ]   Качают: 0  |  0 KB/s  ] 
Сообщения
 Добавлено: 2012-03-14 20:57
Модератор
Аватара пользователя
Стаж: 8 лет
Сообщений: 1991
Спасибок: 129862
Лайков: 20
Отряд особого назначения / Forces speciales

Изображение
Год выпуска: 2011
Страна: Изображение Франция
Жанр: боевик, драма, приключения
Продолжительность:
01:48:46

Перевод: Профессиональный (полное дублирование)

Режиссер: Стефан Рибожа
Сценарий: Майкл Купер, Стефан Рибожа
Продюсер: Тьерри Марро, Бенуа Понсайе
Оператор: Дэвид Янковский
Композитор: Ксавьер Бертелот

В ролях:
Дайан Крюгер (Elsa), Джимон Хунсу (Kovax), Бенуа Мажимель (Tic-Tac), Дэнис Меночет (Lucas), Рафаэль Персонас (Elias), Ален Фиглаж (Victor), Ален Аливон (Marius), Мехди Неббу (Amen), Раз Деган (Ahmed Zaief), Чеки Карио (Amiral Guezennec), Морьяна Алауи (Maina), Дидье Фламан (Jacques Beauregard)
Дублёры: Андрей Фединчик, Анатолий Пашнин, Екатерина Буцкая, Михаил Жонин (Lucas) (Lucas), Андрей Саминин, Евгений Пашин

Описание: Молодая французская журналистка похищена в Афганистане талибами. Правительство Франции отказывается выполнять условия похитителей. Тогда талибы размещают в Интернете жестокое видео с обратным отсчетом времени до ее казни. На выручку девушке отправляется элитный отряд французского спецназа. Но мало отбить жертву у бандитов, нужно еще вывести ее на Большую землю. Возвращение домой становится крестным путем и для гражданской журналистки, и для бывалых вояк-спецназовцев.


Изображение: 6.622 (2 946)
Изображение: 6.20 (2 015)


Доп. Информация
Бюджет: €10 000 000
Сборы в России: $618 878
Мировая премьера: 2 ноября 2011
Релиз на DVD: 1 декабря 2011, «New Dream media», «Новый Диск»

Свернуть


Качество: BDRip 1080p R5

Формат: MKV
Видео: AVC; 1920x808 (2.40:1); 8555 Kbps; 24 fps; 0,230 bpp
Аудио №1: AC3; 384 Kbps; CBR; 6 ch; 16 bit - Dub
Аудио №2: DTS; 1509 Kbps; CBR; 6 ch; 24 bit - Fre
Субтитры №1: английские
Субтитры №2: украинские
Изображение


Знаете ли Вы, что...
  • Большая часть съемок проводилась в Таджикистане.
  • Ряд съемок проводилось на территории республики Джибути.
Свернуть
BDInfo
General
Unique ID : 238014786743959931070722846811758462325 (0xB30FFB02077B06F591A630A8CE1B0575)
Complete name : E:\Downloads\Otriad osobogo naznachenia.rutracker.org.BDRip.1080p.mkv
Format : Matroska
File size : 7.94 GiB
Duration : 1h 48mn
Overall bit rate : 10.5 Mbps
Movie name : Otriad osobogo naznachenia.rutracker.org.BDRip.1080p.chopper887
Encoded date : UTC 2012-03-08 06:29:59
Writing application : mkvmerge v4.8.0 ('I Got The...') сборка от May 24 2011 03:12:58
Writing library : libebml v1.2.0 + libmatroska v1.1.0
Video
ID : 1
Format : AVC
Format/Info : Advanced Video Codec
Format profile : High@L4.1
Format settings, CABAC : Yes
Format settings, ReFrames : 5 frames
Format settings, GOP : M=4, N=24
Codec ID : V_MPEG4/ISO/AVC
Duration : 1h 48mn
Bit rate : 8 555 Kbps
Width : 1 920 pixels
Height : 808 pixels
Display aspect ratio : 2.37:1
Frame rate : 24.000 fps
Color space : YUV
Chroma subsampling : 4:2:0
Bit depth : 8 bits
Scan type : Progressive
Bits/(Pixel*Frame) : 0.230
Stream size : 6.34 GiB (80%)
Title : Otriad osobogo naznachenia.rutracker.org.BDRip.1080p
Writing library : x264 core 120 r2164 da19765
Encoding settings : cabac=1 / ref=5 / deblock=1:0:0 / analyse=0x3:0x113 / me=umh / subme=7 / psy=1 / psy_rd=1.00:0.00 / mixed_ref=1 / me_range=16 / chroma_me=1 / trellis=1 / 8x8dct=1 / cqm=0 / deadzone=21,11 / fast_pskip=0 / chroma_qp_offset=-2 / threads=18 / sliced_threads=0 / nr=0 / decimate=1 / interlaced=0 / bluray_compat=0 / constrained_intra=0 / bframes=3 / b_pyramid=2 / b_adapt=1 / b_bias=0 / direct=1 / weightb=1 / open_gop=0 / weightp=2 / keyint=250 / keyint_min=24 / scenecut=40 / intra_refresh=0 / rc_lookahead=40 / rc=2pass / mbtree=1 / bitrate=8555 / ratetol=1.0 / qcomp=0.60 / qpmin=0 / qpmax=69 / qpstep=4 / cplxblur=20.0 / qblur=0.5 / ip_ratio=1.40 / aq=1:1.00
Audio #1
ID : 2
Format : AC-3
Format/Info : Audio Coding 3
Mode extension : CM (complete main)
Codec ID : A_AC3
Duration : 1h 48mn
Bit rate mode : Constant
Bit rate : 384 Kbps
Channel(s) : 6 channels
Channel positions : Front: L C R, Side: L R, LFE
Sampling rate : 48.0 KHz
Bit depth : 16 bits
Compression mode : Lossy
Stream size : 299 MiB (4%)
Title : Dub
Audio #2
ID : 3
Format : DTS
Format/Info : Digital Theater Systems
Codec ID : A_DTS
Duration : 1h 48mn
Bit rate mode : Constant
Bit rate : 1 510 Kbps
Channel(s) : 6 channels
Channel positions : Front: L C R, Side: L R, LFE
Sampling rate : 48.0 KHz
Bit depth : 24 bits
Compression mode : Lossy
Stream size : 1.15 GiB (14%)
Title : Fre
Text #1
ID : 4
Format : UTF-8
Codec ID : S_TEXT/UTF8
Codec ID/Info : UTF-8 Plain Text
Title : Eng
Text #2
ID : 5
Format : UTF-8
Codec ID : S_TEXT/UTF8
Codec ID/Info : UTF-8 Plain Text
Title : Ukr
Свернуть
Скриншоты
Изображение
Изображение
Изображение
Изображение
Изображение
Изображение
Свернуть

_________________
Себе ты можешь не качать, но раздавать другим обязан!
Не в сети
Профиль  
 Добавлено: 2012-03-15 18:34 (спустя 21 час)
Аватара пользователя
Стаж: 9 лет
Сообщений: 167
Спасибок: 38
смотрел фильм хороший
Не в сети
Профиль  
 Добавлено: 2012-04-05 01:58 (спустя 20 дней)
Аватара пользователя
Стаж: 8 лет 6 месяцев
Сообщений: 41
Спасибок: 10
Не качает((( пишет Ошибка: Ошибка в данных (CRC) :'(
Не в сети
Профиль  
 Добавлено: 2012-04-24 22:58 (спустя 19 дней)
Аватара пользователя
Стаж: 6 лет 1 месяц
Возраст: 30
Сообщений: 14
не качает и не надо! блин потратил 2 часа !вобщем на 3 бала и то с натягом . а за релиз спасибо, качество супер!!
_________________
bezlikii
Не в сети
Профиль  
 Добавлено: 2014-02-26 17:41 (спустя 1 год 10 месяцев)
Аватара пользователя
Стаж: 8 лет 2 месяца
Сообщений: 73
Спасибок: 3
Лайков: 1
раздайте!
Не в сети
Профиль  
Начать новую темуОтветить на тему  [ Сообщений: 5 ] 
Вы не можете начинать темы
Вы не можете отвечать на сообщения
Вы не можете редактировать свои сообщения
Вы не можете удалять свои сообщения