Правила форума

  • В этом разделе создание новых тем Запрещено.
  • Для создания новых тем пользуйтесь Корневым разделом DVD и HD фильмы.
Начать новую темуОтветить на тему  [ Сообщений: 3 ] 
Торрент файл
Размер: 6.83 GB • Зарегистрирован: 4 года 7 месяцев • Статус: Проверено
Скачан: 112 раз • Желающих скачать: 0 • Поблагодарили: 10 раз
 Раздают: 0  |  0 KB/s  ]   Качают: 0  |  0 KB/s  ] 
 Полного источника не было 2 года 6 месяцев 
Сообщения
 Добавлено: 2012-04-08 22:06
Модератор
Аватара пользователя
Стаж: 8 лет
Сообщений: 1991
Спасибок: 129860
Лайков: 20
Отступление / Retreat


«A world away from everything you know.»



Изображение
Год выпуска: 2011
Страна: Изображение Великобритания
Жанр: триллер, драма
Продолжительность:
01:29:49

Перевод: Профессиональный (полное дублирование) [WayLand team]

Режиссер: Карл Тиббетс/Carl Tibbetts
Сценарий: Дженис Халлетт, Carl Tibbetts
Продюсер: Гари Синьор, Саймон Кроу, Даррин Уэлш, Доминик Райт, Дэвид Фрост
Оператор: Крис Сигер
Композитор: Илан Эшкери

В ролях:
Джейми Белл (Jack), Киллиан Мёрфи (Martin), Тэнди Ньютон (Kate), Джимми Юилл (Doug), Marilyn Mantle (Mrs. Doug)

Описание: Журналистка Кейт и архитектор Мартин после личной трагедии отправляются пожить на уединенный остров. И все было прекрасно пока туда не попал окровавленный, полуживой человек в военной форме. Таинственный незнакомец приходит в сознание и рассказывает им, что на материке свирепствует смертельный вирус, уже выкосивший в Европе миллионы людей и теперь им нельзя покидать этот остров…


Изображение: 6.413 (539)
Изображение: 5.70 (3 207)

MPAA: Изображение - Лицам до 17 лет обязательно присутствие взрослого

Доп. Информация
Мировая премьера: 11 февраля 2011

Свернуть


Качество: BDRip 1080p

Формат: MKV
Видео: AVC; 1920x816 (2.35:1); 8939 Kbps; 24 fps; 0,238 bpp
Аудио №1: Russian; AC3; 448 Kbps; CBR; 6 ch; 16 bit
Аудио №2: English; DTS; 1509 Kbps; CBR; 6 ch; 24 bit
Изображение


BDInfo
General
Unique ID : 246228256137727377588515655367764309262 (0xB93DD65071DD20E2E7F6F6D0E06D750E)
Complete name : E:\Фильмы\Детективы, Триллеры, Мордобой\Своя раздача Отступление\retreat 2011 (1080p) (WayLand team).mkv
Format : Matroska
Format version : Version 2
File size : 6.83 GiB
Duration : 1h 29mn
Overall bit rate : 10.9 Mbps
Encoded date : UTC 2012-04-08 08:29:14
Writing application : gdsmux
Writing library : Haali DirectShow Matroska Muxer 1.11.288.0
Video
ID : 2
Format : AVC
Format/Info : Advanced Video Codec
Format profile : High@L4.1
Format settings, CABAC : Yes
Format settings, ReFrames : 5 frames
Codec ID : V_MPEG4/ISO/AVC
Duration : 1h 29mn
Bit rate : 8 939 Kbps
Width : 1 920 pixels
Height : 816 pixels
Display aspect ratio : 2.35:1
Frame rate mode : Constant
Frame rate : 24.000 fps
Color space : YUV
Chroma subsampling : 4:2:0
Bit depth : 8 bits
Scan type : Progressive
Bits/(Pixel*Frame) : 0.238
Stream size : 5.47 GiB (80%)
Writing library : x264 core 118 r2085 8a62835
Encoding settings : cabac=1 / ref=5 / deblock=1:0:0 / analyse=0x3:0x133 / me=umh / subme=7 / psy=1 / psy_rd=1.00:0.00 / mixed_ref=1 / me_range=16 / chroma_me=1 / trellis=1 / 8x8dct=1 / cqm=0 / deadzone=21,11 / fast_pskip=0 / chroma_qp_offset=-2 / threads=12 / sliced_threads=0 / nr=0 / decimate=1 / interlaced=0 / bluray_compat=0 / constrained_intra=0 / bframes=3 / b_pyramid=2 / b_adapt=2 / b_bias=0 / direct=3 / weightb=1 / open_gop=0 / weightp=2 / keyint=250 / keyint_min=24 / scenecut=40 / intra_refresh=0 / rc_lookahead=50 / rc=2pass / mbtree=1 / bitrate=8939 / ratetol=1.0 / qcomp=0.60 / qpmin=0 / qpmax=69 / qpstep=4 / cplxblur=20.0 / qblur=0.5 / ip_ratio=1.40 / aq=1:1.00
Language : English
Default : Yes
Forced : No
Audio #1
ID : 1
Format : AC-3
Format/Info : Audio Coding 3
Mode extension : CM (complete main)
Muxing mode : Header stripping
Codec ID : A_AC3
Duration : 1h 29mn
Bit rate mode : Constant
Bit rate : 448 Kbps
Channel(s) : 6 channels
Channel positions : Front: L C R, Side: L R, LFE
Sampling rate : 48.0 KHz
Bit depth : 16 bits
Compression mode : Lossy
Stream size : 288 MiB (4%)
Title : Дубляж "WayLand Team" AC-3 448bps 48khz 5.1 (surround)
Language : Russian
Default : Yes
Forced : No
Audio #2
ID : 3
Format : DTS
Format/Info : Digital Theater Systems
Codec ID : A_DTS
Duration : 1h 29mn
Bit rate mode : Constant
Bit rate : 1 510 Kbps
Channel(s) : 6 channels
Channel positions : Front: L C R, Side: L R, LFE
Sampling rate : 48.0 KHz
Bit depth : 24 bits
Compression mode : Lossy
Stream size : 970 MiB (14%)
Language : English
Default : No
Forced : No
Свернуть
Скриншоты
Изображение
Изображение
Изображение
Изображение
Изображение
Свернуть

_________________
Себе ты можешь не качать, но раздавать другим обязан!
Не в сети
Профиль  
 Добавлено: 2012-04-12 20:42 (спустя 3 дня)
Аватара пользователя
Стаж: 9 лет 1 месяц
Сообщений: 14
Спасибок: 776
нормальный фильмец. Смотреть можно
Не в сети
Профиль  
 Добавлено: 2012-05-05 11:52 (спустя 22 дня)
Стаж: 7 лет 11 месяцев
Возраст: 35
Сообщений: 25
Спасибок: 55
перевод стремный
Не в сети
Профиль  
Начать новую темуОтветить на тему  [ Сообщений: 3 ] 
Вы не можете начинать темы
Вы не можете отвечать на сообщения
Вы не можете редактировать свои сообщения
Вы не можете удалять свои сообщения