Правила форума

  • В этом разделе создание новых тем Запрещено.
  • Для создания новых тем пользуйтесь Корневым разделом DVD и HD фильмы.
Начать новую темуОтветить на тему  [ Сообщений: 3 ] 
Торрент файл
Размер: 22.15 GB • Зарегистрирован: 3 года 7 месяцев • Статус: Проверено
Скачан: 182 раза • Желающих скачать: 0 • Поблагодарили: 61 раз
 Раздают: 0  |  0 KB/s  ]   Качают: 0  |  0 KB/s  ] 
 Полного источника не было 1 месяц 30 дней 
Сообщения
 Добавлено: 2013-04-13 14:57
Модератор
Аватара пользователя
Стаж: 8 лет 7 месяцев
Сообщений: 4965
Спасибок: 110254
Лайков: 18
Изображение

Отверженные / Les Miserables


Год выпуска: 2012
Страна: Великобритания, Universal Pictures, Relativity Media, Working Title Films, Cameron Mackintosh
Слоган:
«Борьба. Мечта. Надежда. Любовь.»


Жанр: мюзикл, драма, мелодрама
Продолжительность: 02:37:54
Перевод: Профессиональный (Дублированный)
Субтитры: Russian, english
Режиссер: Том Хупер
В ролях: Аманда Сэйфрид, Энн Хэтэуэй, Хью Джекман, Хелена Бонем Картер, Рассел Кроу, Саша Барон Коэн, Аарон Твейт, Эдди Редмэйн
Сборы в России: $3 654 211

Мировая премьера: 5 декабря 2012
Релиз на DVD: 25 апреля 2013, «Двадцатый Век Фокс СНГ»
Релиз на Blu-ray: 25 апреля 2013, «Двадцатый Век Фокс СНГ»
Описание:Действие развивается в начале XIX столетия. Беглый каторжник Жан Вальжан, приговоренный к тюремному заключению, вынужден долгие годы скрываться от жестокого правосудия. Инспектор парижской полиции Жавер считает его поимку делом всей своей жизни. После смерти Фантины — женщины, за судьбу которой Жан Вальжан считал себя в ответе, — единственным близким ему человеком остается ее дочь Козетта. Ради счастья девушки Жан готов на все.
Изображение 7.8/10 (113,957users) Изображение 8.316 (18,016)
Релиз группы: Изображение
Раздача группы: Изображение
Дополнительно: Сохранены оригинальные чаптеры как на Blu-Ray
Качество: ВDRip 1080p
Формат: MKV

Видео: MPEG-4 AVC, 18.0 Мбит/с, 1920x1040
Аудио №1: Russian / AC3, 6 ch, 384 Кбит/с
Аудио №2: English / DTS, 6 ch, 1510 Кбит/с
Аудио №3: English / AC3, 192 kb/s (2 ch) [Commentary with Director Tom Hooper]
"NFO"
Format : Matroska
Format version : Version 2
File size : 22.2 GiB
Duration : 2h 37mn
Overall bit rate : 20.1 Mbps
Movie name : Les Mis?rables (2012) - IRONCLUB
Encoded date : UTC 2013-04-13 09:44:36
Writing application : mkvmerge v5.2.0 ('I can't explain') built on Dec 18 2011 18:12:03
Writing library : libebml v1.2.3 + libmatroska v1.3.0

Video
ID : 1
Format : AVC
Format/Info : Advanced Video Codec
Format profile : High@L4.1
Format settings, CABAC : Yes
Format settings, ReFrames : 4 frames
Codec ID : V_MPEG4/ISO/AVC
Duration : 2h 37mn
Bit rate : 18.0 Mbps
Width : 1 920 pixels
Height : 1 040 pixels
Display aspect ratio : 1.85:1
Frame rate : 23.976 fps
Color space : YUV
Chroma subsampling : 4:2:0
Bit depth : 8 bits
Scan type : Progressive
Bits/(Pixel*Frame) : 0.376
Stream size : 19.4 GiB (88%)
Title : Les.Miserables.2012.1080p.BluRay.DTS.x264-DON
Writing library : x264 core 130 r2273 b3065e6
Encoding settings : cabac=1 / ref=4 / deblock=1:-3:-3 / analyse=0x3:0x133 / me=tesa / subme=10 / psy=1 /
psy_rd=1.00:0.00 / mixed_ref=1 / me_range=24 / chroma_me=1 / trellis=2 / 8x8dct=1 / cqm=0 / deadzone=21,11 / fast_pskip=0
/ chroma_qp_offset=-2 / threads=12 / lookahead_threads=2 / sliced_threads=0 / nr=0 / decimate=0 / interlaced=0 /
bluray_compat=0 / constrained_intra=0 / bframes=8 / b_pyramid=2 / b_adapt=2 / b_bias=0 / direct=3 / weightb=1 / open_gop=0
/ weightp=2 / keyint=250 / keyint_min=23 / scenecut=40 / intra_refresh=0 / rc_lookahead=60 / rc=2pass / mbtree=1 /
bitrate=18000 / ratetol=1.0 / qcomp=0.75 / qpmin=0 / qpmax=69 / qpstep=4 / cplxblur=20.0 / qblur=0.5 / vbv_maxrate=50000 /
vbv_bufsize=62500 / nal_hrd=none / ip_ratio=1.20 / aq=1:0.80
Language : English
Default : Yes
Forced : Yes

Audio #1
ID : 2
Format : AC-3
Format/Info : Audio Coding 3
Mode extension : CM (complete main)
Format settings, Endianness : Big
Codec ID : A_AC3
Duration : 2h 37mn
Bit rate mode : Constant
Bit rate : 384 Kbps
Channel(s) : 6 channels
Channel positions : Front: L C R, Side: L R, LFE
Sampling rate : 48.0 KHz
Bit depth : 16 bits
Compression mode : Lossy
Stream size : 434 MiB (2%)
Title : DD 5.1 @ 384 kbps - Dub, R5
Language : Russian
Default : Yes
Forced : Yes

Audio #2
ID : 3
Format : DTS
Format/Info : Digital Theater Systems
Codec ID : A_DTS
Duration : 2h 37mn
Bit rate mode : Constant
Bit rate : 1 510 Kbps
Channel(s) : 6 channels
Channel positions : Front: L C R, Side: L R, LFE
Sampling rate : 48.0 KHz
Bit depth : 24 bits
Compression mode : Lossy
Stream size : 1.67 GiB (8%)
Title : DTS 5.1 @ 1536 kbps
Language : English
Default : No
Forced : No

Audio #3
ID : 4
Format : AC-3
Format/Info : Audio Coding 3
Format profile : Dolby Digital
Mode extension : CM (complete main)
Format settings, Endianness : Big
Codec ID : A_AC3
Duration : 2h 37mn
Bit rate mode : Constant
Bit rate : 192 Kbps
Channel(s) : 2 channels
Channel positions : Front: L R
Sampling rate : 48.0 KHz
Bit depth : 16 bits
Compression mode : Lossy
Stream size : 217 MiB (1%)
Title : Commentary with Director Tom Hooper
Language : English
Default : No
Forced : No

Text #1
ID : 5
Format : UTF-8
Codec ID : S_TEXT/UTF8
Codec ID/Info : UTF-8 Plain Text
Title : Songs
Language : Russian
Default : Yes
Forced : Yes

Text #2
ID : 6
Format : UTF-8
Codec ID : S_TEXT/UTF8
Codec ID/Info : UTF-8 Plain Text
Title : R5
Language : Russian
Default : No
Forced : No

Text #3
ID : 7
Format : UTF-8
Codec ID : S_TEXT/UTF8
Codec ID/Info : UTF-8 Plain Text
Title : Notabenoid
Language : Russian
Default : No
Forced : No

Text #4
ID : 8
Format : UTF-8
Codec ID : S_TEXT/UTF8
Codec ID/Info : UTF-8 Plain Text
Language : English
Default : No
Forced : No

Text #5
ID : 9
Format : UTF-8
Codec ID : S_TEXT/UTF8
Codec ID/Info : UTF-8 Plain Text
Title : SDH
Language : English
Default : No
Forced : No

Menu
00:00:00.000 : en:Entr'acte
00:07:22.817 : en:On My Own
00:14:31.996 : en:Building the Barricade
00:22:22.967 : en:Javert's Arrival
00:31:52.619 : en:Little People
00:40:13.661 : en:A Little Fall of Rain
00:45:14.295 : en:First Attack
00:52:43.494 : en:Drink with Me
01:00:40.846 : en:Bring Him Home
01:06:41.122 : en:The Final Battle
01:15:51.088 : en:The Sewers
01:20:21.650 : en:Dog Eats Dog
01:27:04.344 : en:Javert's Suicide
01:35:34.729 : en:Turning
01:42:10.291 : en:Empty Chairs at Empty Tables
01:52:20.859 : en:Every Day
02:03:01.082 : en:A Heart Full of Love - Reprise
02:10:09.343 : en:The Wedding Chorale
02:21:18.178 : en:Beggars at the Feast
02:29:41.347 : en:Epilogue (Finale)
Свернуть
"Скриншоты"

Изображение

Изображение

Изображение


Свернуть
_________________
Изображение Изображение Изображение
Билайн / АДС добавляйте ретрекер, чтобы качать на скорости 100 Мбит/с
Cкрытый текст
Изображение
Свернуть
Не в сети
Профиль  
 Добавлено: 2013-04-14 23:53 (спустя 1 день 8 часов)
Кинокомментатор
Аватара пользователя
Стаж: 8 лет 1 месяц
Сообщений: 1325
Спасибок: 794
Лайков: 35
:)
Не в сети
Профиль  
 Добавлено: 2013-04-15 20:52 (спустя 20 часов)
Стаж: 7 лет 2 месяца
Возраст: 30
Сообщений: 35
Извините пожалуйста... в русская озвучка песен вообще планируется?=)
Не в сети
Профиль  
Начать новую темуОтветить на тему  [ Сообщений: 3 ] 
Вы не можете начинать темы
Вы не можете отвечать на сообщения
Вы не можете редактировать свои сообщения
Вы не можете удалять свои сообщения