Правила форума

  • В этом разделе создание новых тем Запрещено.
  • Для создания новых тем пользуйтесь Корневым разделом DVD и HD фильмы.
Начать новую темуОтветить на тему  [ 1 сообщение ] 
Торрент файл
Размер: 10.26 GB • Зарегистрирован: 3 года 10 месяцев • Статус: Проверено
Скачан: 21 раз • Желающих скачать: 0 • Поблагодарили: 5 раз
 Раздают: 0  |  0 KB/s  ]   Качают: 0  |  0 KB/s  ] 
 Полного источника не было 1 день 16 часов 
Сообщения
 Добавлено: 2013-01-23 19:40
Модератор релиз-группы
Аватара пользователя
Стаж: 7 лет 8 месяцев
Возраст: 29
Сообщений: 9789
Спасибок: 23730
Лайков: 103
Изображение

Отвези меня домой
Take Me Home Tonight


Год выпуска: 2011
Страна: США, Германия
Слоган: «Самая. Лучшая. Ночь.»
Жанр: мелодрама, комедия
Продолжительность: 01:37:17
Перевод: Дублированный (с ДВД лицензии R5)
Режиссер: Майкл Даус
Сценарий: Джеки Филго, Джефф Филго, Тофер Грейс
Продюсер: Сьюзэн Бауэн, Райан Кэвэна, Сара Бауэн
Оператор: Терри Стэйси
Композитор: Тревор Хорн
В ролях: Анна Фэрис, Тереза Палмер, Мишель Трахтенберг, Тофер Грейс, Майкл Бин, Крис Пратт, Люси Панч, Дэн Фоглер, Натали Келли, Роберт Хоффман
Бюджет: $23 000 000
Сборы в США: $6 928 068
Мировая премьера: 2 марта 2011
Релиз на DVD: 17 ноября 2011, «Двадцатый Век Фокс СНГ»
Описание: Главный герой закончил колледж, однако до сих пор не может найти свое дело в жизни. Его судьба должна круто измениться во время одной вечеринки.

Изображение User Rating: 6.075 (3121)
Изображение User Rating: 6.30 (28 899)
MPAA: R - Лицам до 17 лет обязательно присутствие взрослого
Раздача группы: Изображение
Качество: BDRip, 1080p
Формат: Matroska
Видео: AVC; 1920x800 (2.40:1); 13,2 Мбит/сек; 23,976 кадр/сек; 0,358 bit/pixel
Аудио №1: Russian; AC3; 384 Kbps; CBR; 6 ch
Аудио №2: English; DTS; 1510 Kbps; CBR; 6 ch

Субтитры №1: Russian (только надписи)
Субтитры №2: English

mediainfo
Общее
Уникальный идентификатор : 238733970783821745330760928222386294571 (0xB39A7D84CAE248A59C120B11DE6F8F2B)
Полное имя : D:\TORRENT\Otvezi.menja.domoj.2011.x264.BDRip(1080p)-HDLine.mkv
Формат : Matroska
Размер файла : 10,3 Гбайт
Продолжительность : 1 ч. 37 м.
Общий поток : 15,1 Мбит/сек
Название фильма : --SCHUMAHER--
Дата кодирования : UTC 2011-11-11 08:22:01
Программа кодирования : mkvmerge v5.0.1 ('Es ist Sommer') built on Oct 9 2011 11:55:43
Библиотека кодирования : libebml v1.2.2 + libmatroska v1.3.0

Видео
Идентификатор : 1
Формат : AVC
Формат/Информация : Advanced Video Codec
Профиль формата : High@L4.1
Параметр CABAC формата : Да
Параметр ReFrames формата : 5 кадров
Параметры GOP формата : M=1, N=55
Идентификатор кодека : V_MPEG4/ISO/AVC
Продолжительность : 1 ч. 37 м.
Битрейт : 13,2 Мбит/сек
Ширина : 1920 пикс.
Высота : 800 пикс.
Соотношение сторон : 2,40:1
Частота кадров : 23,976 кадр/сек
Цветовое пространство : YUV
Подвыборка цветности : 4:2:0
Битовая глубина : 8 бит
Тип развёртки : Прогрессивная
Бит/(Пиксели*Кадры) : 0.358
Размер потока : 8,77 Гбайт (85%)
Библиотека кодирования : x264 core 114 r1924 08d04a4
Настройки программы : cabac=1 / ref=5 / deblock=1:-3:-3 / analyse=0x3:0x113 / me=umh / subme=10 / psy=1 / psy_rd=1.05:0.10 / mixed_ref=1 / me_range=48 / chroma_me=1 / trellis=2 / 8x8dct=1 / cqm=2 / deadzone=21,11 / fast_pskip=0 / chroma_qp_offset=-2 / threads=12 / sliced_threads=0 / nr=0 / decimate=1 / interlaced=0 / constrained_intra=0 / bframes=6 / b_pyramid=2 / b_adapt=2 / b_bias=0 / direct=3 / weightb=1 / open_gop=0 / weightp=2 / keyint=250 / keyint_min=23 / scenecut=40 / intra_refresh=0 / rc_lookahead=50 / rc=2pass / mbtree=1 / bitrate=13202 / ratetol=1.0 / qcomp=0.70 / qpmin=1 / qpmax=63 / qpstep=4 / cplxblur=20.0 / qblur=0.5 / vbv_maxrate=40000 / vbv_bufsize=40000 / nal_hrd=none / ip_ratio=1.40 / aq=2:0.80
Язык : English

Аудио #1
Идентификатор : 2
Формат : AC-3
Формат/Информация : Audio Coding 3
Расширение режима : CM (complete main)
Идентификатор кодека : A_AC3
Продолжительность : 1 ч. 37 м.
Вид битрейта : Постоянный
Битрейт : 384 Кбит/сек
Каналы : 6 каналов
Расположение каналов : Front: L C R, Side: L R, LFE
Частота : 48,0 КГц
Битовая глубина : 16 бит
Метод сжатия : С потерями
Размер потока : 267 Мбайт (3%)
Язык : Russian

Аудио #2
Идентификатор : 3
Формат : DTS
Формат/Информация : Digital Theater Systems
Идентификатор кодека : A_DTS
Продолжительность : 1 ч. 37 м.
Вид битрейта : Постоянный
Битрейт : 1510 Кбит/сек
Каналы : 6 каналов
Расположение каналов : Front: L C R, Side: L R, LFE
Частота : 48,0 КГц
Битовая глубина : 24 бит
Метод сжатия : С потерями
Размер потока : 1,03 Гбайт (10%)
Язык : English

Текст #1
Идентификатор : 4
Формат : UTF-8
Идентификатор кодека : S_TEXT/UTF8
Идентификатор кодека/Информация : UTF-8 Plain Text
Заголовок : Forced
Язык : Russian

Текст #2
Идентификатор : 5
Формат : UTF-8
Идентификатор кодека : S_TEXT/UTF8
Идентификатор кодека/Информация : UTF-8 Plain Text
Язык : English

Меню
00:00:00.000 : en:
00:03:37.299 : en:
00:06:57.750 : en:
00:12:40.009 : en:
00:17:01.894 : en:
00:21:41.383 : en:
00:25:49.130 : en:
00:28:56.901 : en:
00:33:45.897 : en:
00:37:31.414 : en:
00:41:55.637 : en:
00:45:19.550 : en:
00:50:11.007 : en:
00:53:58.360 : en:
01:00:37.759 : en:
01:08:36.444 : en:
01:13:45.837 : en:
01:20:28.280 : en:
01:26:11.122 : en:
01:32:26.997 : en:


Свернуть
Скриншоты

Изображение
Изображение
Изображение
Изображение
Изображение
Изображение
Изображение
Изображение
Свернуть


Тема поднималась пользователем volkov2009 2013-01-23 19:40.
Не в сети
Профиль  
Начать новую темуОтветить на тему  [ 1 сообщение ] 
Вы не можете начинать темы
Вы не можете отвечать на сообщения
Вы не можете редактировать свои сообщения
Вы не можете удалять свои сообщения