Правила форума

  • В этом разделе создание новых тем Запрещено.
  • Для создания новых тем пользуйтесь Корневым разделом DVD и HD фильмы.
Начать новую темуОтветить на тему  [ 1 сообщение ] 
Торрент файл
Размер: 5.52 GB • Зарегистрирован: 3 года 5 месяцев • Статус: Проверено
Скачан: 42 раза • Желающих скачать: 0 • Поблагодарили: 9 раз
 Раздают: 0  |  0 KB/s  ]   Качают: 0  |  0 KB/s  ] 
 Полного источника не было 9 месяцев 
Сообщения
 Добавлено: 2013-06-22 11:01
Top-releaser
Аватара пользователя
Стаж: 8 лет 9 месяцев
Сообщений: 479
Спасибок: 20189
Лайков: 16
Изображение

Изображение

Spring Breakers


«Wish You Were Here»

Год выпуска: 2012
Страна: Изображение США; Muse Productions, O' Salvation, Division Films
Жанр: Драма, комедия
Продолжительность: 01:33:28
Перевод: Профессиональный (дублированный) [Лицензия]

Режиссёр: Хармони Корин / Harmony Korine

В ролях: Джеймс Франко, Эшли Бенсон, Ванесса Энн Хадженс, Селена Гомес, Рэйчел Корин, Гуччи Мэйн, Хизер Моррис, Эшли Лендцьон, Эмма Холцер, Ли Ирби

Описание: Четыре ученицы колледжа были лучшими подругами, начиная со школьной скамьи. Теперь они живут в скучном общежитии и жаждут приключений. Впереди весенние каникулы, и очень хочется провести их весело и незабываемо. Девчонки решают подзаработать денег, чтобы хватило оторваться по полной.

Правда, способ заработка денег героини выбирают не совсем обычный. Судьба сводит их с одним весьма сомнительным типом, торговцем наркотиками и оружием, и это знакомство обещает предоставить им массу острых ощущений, на которые они уже не могли и надеяться. Как далеко способны зайти девушки, чтобы получить каникулы, которые, уж будьте уверены, они никогда не забудут?



Качество: BDRip 720p R5
Формат: MKV

Видео: AVC at 6774 Кбит/сек, 1280 x 536 (2.388) at 24.000 fps
Аудио : DTS at 1509 Кбит/сек, 6 канала(ов), 48,0 КГц [Дубляж]
Релиз : Изображение Раздача: Изображение

Изображение
MediaInfo

Общее
Уникальный идентификатор : 198252558691790356101285090520650811930 (0x95260DCE978037BB97BA56E09B2D0A1A)
Полное имя : C:\Users\Домашний\Desktop\Spring.Breakers.2012.720p.[nntt].mkv
Формат : Matroska
Версия формата : Version 4 / Version 2
Размер файла : 5,52 Гбайт
Продолжительность : 1 ч. 33 м.
Общий поток : 8451 Кбит/сек
Название фильма : HDCLUB present "Spring Breakers (2012)"
Дата кодирования : UTC 2013-06-21 18:10:52
Программа кодирования : mkvmerge v6.2.0 ('Promised Land') built on Apr 28 2013 12:22:01
Библиотека кодирования : libebml v1.3.0 + libmatroska v1.4.0

Видео
Идентификатор : 1
Формат : AVC
Формат/Информация : Advanced Video Codec
Профиль формата : High@L4.1
Параметр CABAC формата : Да
Параметр ReFrames формата : 12 кадров
Идентификатор кодека : V_MPEG4/ISO/AVC
Продолжительность : 1 ч. 33 м.
Битрейт : 6774 Кбит/сек
Ширина : 1280 пикселей
Высота : 536 пикселей
Соотношение сторон : 2,40:1
Режим частоты кадров : Постоянный
Частота кадров : 24,000 кадра/сек
Цветовое пространство : YUV
Субдискретизация насыщенности : 4:2:0
Битовая глубина : 8 бит
Тип развёртки : Прогрессивная
Бит/(Пиксели*Кадры) : 0.411
Размер потока : 4,42 Гбайт (80%)
Заголовок : Spring.Breakers.2012.720p.BluRay.Rus.HDCLUB
Библиотека кодирования : x264 core 133 r2334+704+50 a7549b7 tMod [8-bit@all X86_64]
Настройки программы : cabac=1 / ref=12 / deblock=1:-3:-3 / analyse=0x3:0x133 / me=umh / subme=11 / psy=1 / fade_compensate=0.00 / psy_rd=1.00:0.00 / mixed_ref=1 / me_range=48 / chroma_me=1 / trellis=2 / 8x8dct=1 / cqm=0 / deadzone=21,11 / fast_pskip=0 / chroma_qp_offset=-2 / threads=12 / lookahead_threads=2 / sliced_threads=0 / nr=0 / decimate=1 / interlaced=0 / bluray_compat=0 / constrained_intra=0 / fgo=0 / bframes=7 / b_pyramid=2 / b_adapt=2 / b_bias=0 / direct=1 / weightb=1 / open_gop=0 / weightp=2 / keyint=240 / keyint_min=24 / scenecut=40 / intra_refresh=0 / rc_lookahead=60 / rc=crf / mbtree=0 / crf=17.6000 / qcomp=0.60 / qpmin=0 / qpmax=69 / qpstep=4 / vbv_maxrate=50000 / vbv_bufsize=62500 / crf_max=0.0 / nal_hrd=none / ip_ratio=1.40 / pb_ratio=1.30 / aq=1:0.80 / aq-sensitivity=10.00 / aq-factor=1.00:1.00:1.00 / aq2=0 / aq3=0
Язык : English
Default : Да
Forced : Нет

Аудио
Идентификатор : 2
Формат : DTS
Формат/Информация : Digital Theater Systems
Режим : 16
Параметр Endianness формата : Big
Идентификатор кодека : A_DTS
Продолжительность : 1 ч. 33 м.
Вид битрейта : Постоянный
Битрейт : 1509 Кбит/сек
Каналы : 6 каналов
Расположение каналов : Front: L C R, Side: L R, LFE
Частота : 48,0 КГц
Битовая глубина : 24 бит
Метод сжатия : С потерями
Размер потока : 1009 Мбайт (18%)
Заголовок : DTS 5.1 @ 1509 kbps - Dubbed [BD RUS]
Язык : Russian
Default : Да
Forced : Нет

Меню
00:00:00.000 : ru:Chapter 1
00:00:51.666 : ru:Chapter 2
00:10:21.916 : ru:Chapter 3
00:19:46.166 : ru:Chapter 4
00:34:58.583 : ru:Chapter 5
00:45:34.625 : ru:Chapter 6
00:58:29.041 : ru:Chapter 7
01:10:19.750 : ru:Chapter 8
01:22:24.583 : ru:Chapter 9


Свернуть
Скриншоты

Изображение
Изображение
Изображение
Изображение
Изображение
Изображение
Свернуть
_________________
Изображение
Изображение
Не в сети
Профиль  
Начать новую темуОтветить на тему  [ 1 сообщение ] 
Вы не можете начинать темы
Вы не можете отвечать на сообщения
Вы не можете редактировать свои сообщения
Вы не можете удалять свои сообщения