Правила форума

  • В этом разделе создание новых тем Запрещено.
  • Для создания новых тем пользуйтесь Корневым разделом DVD и HD фильмы.
Начать новую темуОтветить на тему  [ Сообщений: 3 ] 
Торрент файл
Размер: 11.53 GB • Зарегистрирован: 3 года 5 месяцев • Статус: Проверено
Скачан: 77 раз • Желающих скачать: 0 • Поблагодарили: 16 раз
 Раздают: 0  |  0 KB/s  ]   Качают: 0  |  0 KB/s  ] 
 Полного источника не было 1 год 11 месяцев 
Сообщения
 Добавлено: 2013-06-22 10:02
Аватара пользователя
Стаж: 5 лет 4 месяца
Возраст: 26
Сообщений: 1658
Спасибок: 45803
Лайков: 69
Отвязные каникулы / Spring Breakers


«Вы были здесь по желанию»



Изображение
Год выпуска: 2012
Страна: Изображение
Жанр: Драма,Комедия
Продолжительность: 01:33:28
Перевод: Дублированный [лицензия]


Режиссёр: Хармони Корин

Сценарий: Хармони Корин

Продюсер: Чарльз Антониоз, Джордан Гертнер, Крис Хэнли

Оператор: Бенуа Деби

Композитор: Клифф Мартинес, Скриллекс

Xудожник: Эллиотт Хостеттер, Альмитра Кори, Хайди Бивенс

В ролях: Джеймс Франко,Эшли Бенсон, Ванесса Энн Хадженс, Селена Гомес, Рэйчел Корин, Гуччи Мэйн, Хизер Моррис, Эшли Лендцьон, Эмма Холцер, Ли Ирби, Джефф Джарретт, Джош Рэндолл

Описание: Четыре ученицы колледжа были лучшими подругами, начиная со школьной скамьи. Теперь они живут в скучном общежитии и жаждут приключений. Впереди весенние каникулы, и очень хочется провести их весело и незабываемо. Девчонки решают подзаработать денег, чтобы хватило оторваться по полной.
Правда, способ заработка денег героини выбирают не совсем обычный. Судьба сводит их с одним весьма сомнительным типом, торговцем наркотиками и оружием, и это знакомство обещает предоставить им массу острых ощущений, на которые они уже не могли и надеяться. Как далеко способны зайти девушки, чтобы получить каникулы, которые, уж будьте уверены, они никогда не забудут?



Изображение



Бюджет: $5 000 000
Сборы в США: $14 124 284
Сборы в Мире: $31 724 284
Сборы в России: $1 424 047

Мировая премьера:5 сентября 2012.
Российский прокат: 9 мая 2013, «Каскад»
Релиз на DVD:24 июня 2013, «Новый Диск». [color]
Релиз на Blu-Ray:24 июня 2013, «Новый Диск».


Качество: BDRip (1080p)
Формат: MKV
Видео: MPEG4 (AVC), 1920x804, 24.000 fps, 15,8 Мбит/сек
Аудио: DTS, 48000 Hz, 6 каналов, 1510 kbit/s





«MediaInfo»
Общее
Уникальный идентификатор : 223033052912081316800108623494969893267 (0xA7CA9A803B1B41A9B773A92196F12193)
Полное имя : D:\Фильмы и сериалы\Otvjaznye.kanikuly.2012.BDRip.1080p.mkv
Формат : Matroska
Версия формата : Version 2
Размер файла : 11,5 Гбайт
Продолжительность : 1 ч. 33 м.
Общий поток : 17,7 Мбит/сек
Дата кодирования : UTC 2013-06-21 13:00:24
Программа кодирования : mkvmerge v5.2.0 ('I can't explain') built on Dec 18 2011 18:12:03
Библиотека кодирования : libebml v1.2.3 + libmatroska v1.3.0

Видео
Идентификатор : 1
Формат : AVC
Формат/Информация : Advanced Video Codec
Профиль формата : High@L4.1
Параметр CABAC формата : Да
Параметр ReFrames формата : 5 кадров
Идентификатор кодека : V_MPEG4/ISO/AVC
Продолжительность : 1 ч. 33 м.
Битрейт : 15,8 Мбит/сек
Ширина : 1920 пикселей
Высота : 804 пикселя
Соотношение сторон : 2,40:1
Режим частоты кадров : Постоянный
Частота кадров : 24,000 кадра/сек
Цветовое пространство : YUV
Субдискретизация насыщенности : 4:2:0
Битовая глубина : 8 бит
Тип развёртки : Прогрессивная
Бит/(Пиксели*Кадры) : 0.426
Размер потока : 10,3 Гбайт (89%)
Заголовок : Spring Breakers (2012)
Библиотека кодирования : x264 core 133 r2334 a3ac64b
Настройки программы : cabac=1 / ref=5 / deblock=1:-1:-1 / analyse=0x3:0x113 / me=dia / subme=1 / psy=1 / psy_rd=1.00:0.15 / mixed_ref=1 / me_range=16 / chroma_me=1 / trellis=1 / 8x8dct=1 / cqm=0 / deadzone=21,11 / fast_pskip=1 / chroma_qp_offset=-1 / threads=12 / lookahead_threads=2 / sliced_threads=0 / nr=0 / decimate=1 / interlaced=0 / bluray_compat=0 / constrained_intra=0 / bframes=3 / b_pyramid=2 / b_adapt=1 / b_bias=0 / direct=1 / weightb=1 / open_gop=0 / weightp=2 / keyint=250 / keyint_min=24 / scenecut=40 / intra_refresh=0 / rc_lookahead=40 / rc=crf / mbtree=1 / crf=18.5 / qcomp=0.60 / qpmin=0 / qpmax=69 / qpstep=4 / ip_ratio=1.40 / aq=1:1.00
Язык : English
Default : Да
Forced : Да

Аудио
Идентификатор : 2
Формат : DTS
Формат/Информация : Digital Theater Systems
Режим : 16
Параметр Endianness формата : Big
Идентификатор кодека : A_DTS
Продолжительность : 1 ч. 33 м.
Вид битрейта : Постоянный
Битрейт : 1509 Кбит/сек
Каналы : 6 каналов
Расположение каналов : Front: L C R, Side: L R, LFE
Частота : 48,0 КГц
Битовая глубина : 24 бит
Метод сжатия : С потерями
Размер потока : 1009 Мбайт (9%)
Заголовок : DTS 5.1 @ 1536 kbps
Язык : Russian
Default : Да
Forced : Да


Свернуть

«Трейлер»
Свернуть

«Скриншоты»
Изображение
Изображение
Изображение
Свернуть
_________________
S.T.A.L.K.E.R.: Lost Alpha
Не в сети
Профиль  
 Добавлено: 2013-06-22 18:03 (спустя 8 часов)
Модератор
Аватара пользователя
Стаж: 8 лет 11 месяцев
Сообщений: 516
Спасибок: 26888
Лайков: 1
Сцена. При появлении лучшего будет заиенен.
Не в сети
Профиль  
 Добавлено: 2013-07-05 14:43 (спустя 12 дней)
Аватара пользователя
Стаж: 8 лет 11 месяцев
Сообщений: 170
Спасибок: 139
комедии тут нет, фильм шлак, хотели снять психодел какойто, но не получилось, многие куски видео и диалоги повторяют по несколько раз подряд что раздражает
Не в сети
Профиль  
Начать новую темуОтветить на тему  [ Сообщений: 3 ] 
Вы не можете начинать темы
Вы не можете отвечать на сообщения
Вы не можете редактировать свои сообщения
Вы не можете удалять свои сообщения