Правила форума

  • В этом разделе создание новых тем Запрещено.
  • Для создания новых тем пользуйтесь Корневым разделом DVD и HD фильмы.
Начать новую темуОтветить на тему  [ Сообщений: 11 ] 
Торрент файл
Размер: 5.52 GB • Зарегистрирован: 3 года 6 месяцев • Статус: Проверено
Скачан: 252 раза • Желающих скачать: 0 • Поблагодарили: 78 раз
 Раздают: 0  |  0 KB/s  ]   Качают: 0  |  0 KB/s  ] 
 Полного источника не было 3 месяца 13 дней 
Сообщения
 Добавлено: 2013-06-04 16:01
Аватара пользователя
Стаж: 8 лет 7 месяцев
Сообщений: 572
Спасибок: 12628
Лайков: 11
Оз: Великий и Ужасный

Oz the Great and Powerful

Изображение


Год выпуска: 2013
Страна: США
Жанр: фэнтези, приключения, комедия, семейный
Продолжительность: 02:10:30
Перевод: Профессиональный (дубляж) [Лицензия]

Режиссёр: Сэм Рэйми / Sam Raimi
В ролях: Джеймс Франко / James Franco (Oz), Мила Кунис / Mila Kunis (Theodora), Рейчел Вайс / Rachel Weisz (Evanora), Мишель Уильямс / Michelle Williams (Annie / Glinda), Зак Брафф / Zach Braff (Frank / Finley), Билл Коббс / Bill Cobbs (Master Tinker), Джои Кинг / Joey King (Girl in Wheelchair / China Girl), Тони Кокс / Tony Cox (Knuck), Стивен Р. Харт / Stephen R. Hart (Winkie General), Эбигейл Спенсер / Abigail Spencer (May), Брюс Кэмпбелл / Bruce Campbell (Winkie Gate Keeper), Тед Рэйми / Ted Raimi (Skeptic in Audience)
Описание: Когда ураган забрасывает циркового фокусника Оскара Диггса из пыльного Канзаса в волшебную страну Оз, склонный к мошенничеству циркач полагает, что он поймал удачу за хвост — ведь с помощью своих трюков он с легкостью может добыть в новых землях и славу и богатство.

Однако его ждёт встреча с тремя чародейками, Теодорой, Эванорой и Глиндой, которые сомневаются в том, тот ли это великий волшебник, появления которого ждали легковерные жители страны Оз. Волей-неволей, пришелец оказывается втянутым в противостояние эпического масштаба, и ему приходится использовать весь свой «магический» арсенал, с добавлением толики настоящего волшебства.

В ситуации выбора между Добром и Злом, Оскару Диггсу предстоит не только стать Великим и Ужасным Волшебником из Страны Оз, но и немного измениться к лучшему.



Качество: BDRip
Формат: MKV
Видео кодек: H264 (AVC)
Аудио кодек: AC3 (Dolby Digital)
Видео: x.264, 1280x534 (2.40:1), ~4684 kbps avg, 23,976 fps
Аудио #1: AC3 Dolby Digital, 48 KHz, ~640 kbps, 3/2 (L,C,R,l,r) + LFE ch /RUS/ [Профессиональный (дубляж)] [Лицензия]
Аудио #2: AC3 Dolby Digital, 48 KHz, ~640 kbps, 3/2 (L,C,R,l,r) + LFE ch /ENG/ [Оригинальная звуковая дорожка]
Субтитры: Русские, Английские |отключаемые *.srt|
> > > Sample < < <
Скриншоты
Изображение
Изображение
Изображение
Изображение
Изображение
Изображение
Изображение
Изображение
Свернуть

MediaInfo
General
Unique ID : 180353372364019679294635351619605107373 (0x87AECBC952EA175DA55297BE144012AD)
Complete name : E:\TORRENT\Video2\Oz.Velikii.I.Uzhasnyi.2013.720p.x264.AC3.-HQ-ViDEO.NNTT.mkv
Format : Matroska
Format version : Version 2
File size : 5.52 GiB
Duration : 2h 10mn
Overall bit rate : 6 060 Kbps
Movie name : Oz the Great and Powerful (2013) - HQ-ViDEO
Encoded date : UTC 2013-06-04 06:41:07
Writing application : mkvmerge v6.2.0 ('Promised Land') built on Apr 28 2013 12:22:01
Writing library : libebml v1.3.0 + libmatroska v1.4.0

Video
ID : 1
Format : AVC
Format/Info : Advanced Video Codec
Format profile : High@L4.1
Format settings, CABAC : Yes
Format settings, ReFrames : 12 frames
Codec ID : V_MPEG4/ISO/AVC
Duration : 2h 10mn
Bit rate : 4 660 Kbps
Width : 1 280 pixels
Height : 534 pixels
Display aspect ratio : 2.40:1
Frame rate mode : Constant
Frame rate : 23.976 fps
Color space : YUV
Chroma subsampling : 4:2:0
Bit depth : 8 bits
Scan type : Progressive
Bits/(Pixel*Frame) : 0.284
Stream size : 4.25 GiB (77%)
Title : TayTO @ 4684 Kbps
Writing library : x264 core 132 r2309 3b1f1f7
Encoding settings : cabac=1 / ref=12 / deblock=1:-3:-3 / analyse=0x3:0x133 / me=tesa / subme=11 / psy=1 / psy_rd=1.00:0.00 / mixed_ref=1 / me_range=16 / chroma_me=1 / trellis=2 / 8x8dct=1 / cqm=0 / deadzone=21,11 / fast_pskip=0 / chroma_qp_offset=-2 / threads=12 / lookahead_threads=2 / sliced_threads=0 / nr=0 / decimate=1 / interlaced=0 / bluray_compat=0 / constrained_intra=0 / bframes=7 / b_pyramid=2 / b_adapt=2 / b_bias=0 / direct=3 / weightb=1 / open_gop=0 / weightp=2 / keyint=250 / keyint_min=23 / scenecut=40 / intra_refresh=0 / rc=crf / mbtree=0 / crf=15.6 / qcomp=0.75 / qpmin=0 / qpmax=69 / qpstep=4 / ip_ratio=1.40 / pb_ratio=1.30 / aq=1:0.75
Language : English
Default : Yes
Forced : No
Matrix coefficients : BT.709

Audio #1
ID : 2
Format : AC-3
Format/Info : Audio Coding 3
Mode extension : CM (complete main)
Format settings, Endianness : Big
Codec ID : A_AC3
Duration : 2h 10mn
Bit rate mode : Constant
Bit rate : 640 Kbps
Channel(s) : 6 channels
Channel positions : Front: L C R, Side: L R, LFE
Sampling rate : 48.0 KHz
Bit depth : 16 bits
Compression mode : Lossy
Stream size : 597 MiB (11%)
Title : AC3 DD 5.1 @ 640 Kbps DUB
Language : Russian
Default : Yes
Forced : Yes

Audio #2
ID : 3
Format : AC-3
Format/Info : Audio Coding 3
Mode extension : CM (complete main)
Format settings, Endianness : Big
Codec ID : A_AC3
Duration : 2h 10mn
Bit rate mode : Constant
Bit rate : 640 Kbps
Channel(s) : 6 channels
Channel positions : Front: L C R, Side: L R, LFE
Sampling rate : 48.0 KHz
Bit depth : 16 bits
Compression mode : Lossy
Stream size : 597 MiB (11%)
Title : AC3 DD 5.1 @ 640 Kbps Original - Blu-Ray US
Language : English
Default : No
Forced : No

Text #1
ID : 4
Format : UTF-8
Codec ID : S_TEXT/UTF8
Codec ID/Info : UTF-8 Plain Text
Language : Russian
Default : No
Forced : No

Text #2
ID : 5
Format : UTF-8
Codec ID : S_TEXT/UTF8
Codec ID/Info : UTF-8 Plain Text
Language : English
Default : No
Forced : No

Menu
00:00:00.000 : en:Chapter 01
00:02:37.699 : en:Chapter 02
00:06:16.959 : en:Chapter 03
00:09:57.555 : en:Chapter 04
00:11:32.691 : en:Chapter 05
00:15:20.753 : en:Chapter 06
00:17:47.191 : en:Chapter 07
00:20:29.478 : en:Chapter 08
00:24:01.982 : en:Chapter 09
00:24:49.779 : en:Chapter 10
00:27:01.661 : en:Chapter 11
00:29:37.358 : en:Chapter 12
00:32:43.419 : en:Chapter 13
00:34:30.193 : en:Chapter 14
00:37:22.657 : en:Chapter 15
00:38:57.376 : en:Chapter 16
00:40:39.145 : en:Chapter 17
00:42:09.944 : en:Chapter 18
00:42:52.444 : en:Chapter 19
00:45:33.480 : en:Chapter 20
00:47:22.839 : en:Chapter 21
00:48:32.409 : en:Chapter 22
00:53:29.831 : en:Chapter 23
00:55:22.652 : en:Chapter 24
00:57:15.932 : en:Chapter 25
00:59:10.838 : en:Chapter 26
01:02:05.263 : en:Chapter 27
01:05:33.220 : en:Chapter 28
01:06:21.102 : en:Chapter 29
01:09:55.774 : en:Chapter 30
01:12:20.836 : en:Chapter 31
01:15:37.783 : en:Chapter 32
01:18:20.320 : en:Chapter 33
01:19:47.782 : en:Chapter 34
01:21:27.882 : en:Chapter 35
01:26:16.170 : en:Chapter 36
01:28:08.783 : en:Chapter 37
01:30:33.219 : en:Chapter 38
01:34:24.116 : en:Chapter 39
01:36:57.436 : en:Chapter 40
01:37:35.975 : en:Chapter 41
01:41:30.876 : en:Chapter 42
01:42:30.394 : en:Chapter 43
01:45:51.762 : en:Chapter 44
01:48:33.423 : en:Chapter 45
01:51:23.802 : en:Chapter 46
01:54:26.317 : en:Chapter 47
01:55:54.072 : en:Chapter 48
01:57:58.404 : en:Chapter 49
01:59:34.417 : en:Chapter 50
02:02:49.570 : en:Chapter 51
02:04:32.756 : en:Chapter 52
Свернуть


Последний раз редактировалось Ramx32 2013-06-13 18:49, всего редактировалось 2 раз(а).
Не в сети
Профиль  
 Добавлено: 2013-06-04 16:27 (спустя 25 минут)
Аватара пользователя
Стаж: 8 лет 7 месяцев
Сообщений: 572
Спасибок: 12628
Лайков: 11
:) ПРИЯТНОГО ПРОСМОТРА! :co_ol:
Не в сети
Профиль  
 Добавлено: 2013-06-04 16:44 (спустя 17 минут)
Модератор в армии
Аватара пользователя
Стаж: 7 лет 8 месяцев
Возраст: 24
Сообщений: 20668
Спасибок: 7406
Лайков: 62
а по моему данную раздачу надо было создавать совсем в другом разделе :ne_znayu:
_________________
Изображение
Не в сети
Профиль  
 Добавлено: 2013-06-04 16:54 (спустя 10 минут)
Аватара пользователя
Стаж: 8 лет 7 месяцев
Сообщений: 572
Спасибок: 12628
Лайков: 11
:par_don:
Извините... :ny_tik:
Не в сети
Профиль  
 Добавлено: 2013-06-04 17:04 (спустя 9 минут)
Top-seeder
Аватара пользователя
Стаж: 8 лет 1 месяц
Возраст: 26
Сообщений: 17415
Спасибок: 316
Лайков: 45

Alexandr-VAD:

а по моему данную раздачу надо было создавать совсем в другом разделе
А Марка Красса вы так на место и не поставили... :za_da_va_la:
Cкрытый текст
:-D
Свернуть
_________________
ИзображениеИзображение Изображение Взял смайл - ставь ©!
Cкрытый текст
Изображение
Свернуть
Не в сети
Профиль  
 Добавлено: 2013-06-04 17:45 (спустя 41 минута)
Модератор в армии
Аватара пользователя
Стаж: 7 лет 8 месяцев
Возраст: 24
Сообщений: 20668
Спасибок: 7406
Лайков: 62

Ryzhakov:

А Марка Красса вы так на место и не поставили...
:-[
Cкрытый текст
;;-)))
Свернуть
_________________
Изображение
Не в сети
Профиль  
 Добавлено: 2013-06-04 18:01 (спустя 15 минут)
Аватара пользователя
Стаж: 7 лет 11 месяцев
Возраст: 29
Сообщений: 577
Спасибок: 3357
Лайков: 26
Про такие фильмы говорят: "Спасибо - поблевал"
Не в сети
Профиль  
 Добавлено: 2013-06-04 18:08 (спустя 7 минут)
Аватара пользователя
Стаж: 8 лет
Сообщений: 83
Лайков: 2
Чет после просмотра скринов смотреть не охота, а после коментов вообще расхотелось :ps_ih:
Не в сети
Профиль  
 Добавлено: 2013-06-04 18:42 (спустя 33 минуты)
Аватара пользователя
Стаж: 7 лет 8 месяцев
Возраст: 24
Сообщений: 299
Спасибок: 71
Лайков: 2
спасибо) а в 3д когда будет?))
Не в сети
Профиль  
 Добавлено: 2013-06-07 19:51 (спустя 3 дня)
Модератор
Аватара пользователя
Стаж: 8 лет 11 месяцев
Сообщений: 516
Спасибок: 26888
Лайков: 1
Внимание: Для DVD и HD-разделов необходимы развернутые технические данные:
Для HD: Отчет MediaInfo или BDInfo (под спойлером)
Не в сети
Профиль  
 Добавлено: 2013-06-13 18:52 (спустя 5 дней)
Аватара пользователя
Стаж: 8 лет 7 месяцев
Сообщений: 572
Спасибок: 12628
Лайков: 11
Проверьте, пожалуйста, раздачу! :) Дооформил
Не в сети
Профиль  
Начать новую темуОтветить на тему  [ Сообщений: 11 ] 
Вы не можете начинать темы
Вы не можете отвечать на сообщения
Вы не можете редактировать свои сообщения
Вы не можете удалять свои сообщения