Правила форума

  • В этом разделе создание новых тем Запрещено.
  • Для создания новых тем пользуйтесь Корневым разделом DVD и HD фильмы.
Начать новую темуОтветить на тему  [ Сообщений: 10 ] 
Торрент файл
Размер: 12.26 GB • Зарегистрирован: 3 года 5 месяцев • Статус: Проверено
Скачан: 593 раза • Желающих скачать: 0 • Поблагодарили: 142 раза
 Раздают: 1  |  0 KB/s  ]   Качают: 0  |  0 KB/s  ] 
Сообщения
 Добавлено: 2013-06-10 06:46
Top-releaser
Аватара пользователя
Стаж: 8 лет 7 месяцев
Сообщений: 1286
Спасибок: 3420
Лайков: 7
Оз: Великий и Ужасный

Oz the Great and Powerful

«Find yourself in Oz.»

Изображение


Страна: США
Жанр: фэнтези, приключения, комедия, семейныйслова
Год выпуска: 2013

Продолжительность: 02:10:29
Перевод: Профессиональный (полное дублирование)
Субтитры: русские, английские

Режиссер: Сэм Рэйми / Sam Raimi

В ролях: Джеймс Франко (Oz), Мила Кунис (Theodora), Рейчел Вайс (Evanora), Мишель Уильямс (Annie / Glinda), Зак Брафф (Frank / Finley), Билл Коббс (Master Tinker), Джои Кинг (Girl in Wheelchair / China Girl), Тони Кокс (Knuck), Стивен Р. Харт (Winkie General), Эбигейл Спенсер (May), Брюс Кэмпбелл (Winkie Gate Keeper), Тед Рэйми (Skeptic in Audience)
Дублёры: Олег Фёдоров (Oz), Светлана Цвиченко (Theodora), Светлана Кузнецова (Evanora), Ирина Обрезкова (Girl in Wheelchair / China Girl)
Описание: Когда ураган забрасывает циркового фокусника Оскара Диггса из пыльного Канзаса в волшебную страну Оз, склонный к мошенничеству циркач полагает, что он поймал удачу за хвост - ведь с помощью своих трюков он с легкостью может добыть в новых землях и славу и богатство.
Однако его ждёт встреча с тремя чародейками, Теодорой, Эванорой и Глиндой, которые сомневаются в том, тот ли это великий волшебник, появления которого ждали легковерные жители страны Оз. Волей-неволей, пришелец оказывается втянутым в противостояние эпического масштаба, и ему приходится использовать весь свой «магический» арсенал, с добавлением толики настоящего волшебства.
В ситуации выбора между Добром и Злом, Оскару Диггсу предстоит не только стать Великим и Ужасным Волшебником из Страны Оз, но и немного измениться к лучшему.

Изображение
MPAA: PG - Рекомендуется присутствие родителей
Источник: Релиз группы Изображение
Качество: BDRip
Контейнер: MKV

Видео: AVC, 1920x800 (2.40:1), 10425 kbps, 23,976 fps, 0,283 bpp
Аудио №1: русский / DTS / 5.1 / 48 kHz / 1510 kbps / 24 bit ||
Аудио №2: английский / DTS / 5.1 / 48 kHz / 1510 kbps / 24 bit
Навигация по главам: есть
Сэмпл
"Скриншоты"

Изображение
Изображение
Изображение
Изображение
Изображение
Изображение
Изображение
Изображение
Изображение
Свернуть
"Media Info"
General
Unique ID : 233898343131266111627207064923728300504 (0xAFF72EAB135AF495AC03E8D5BB90C9D8)
Complete name : D:\Видео\Oz.The.Great.and.Powerful.2013.BDRip.1080p.UG.mkv
Format : Matroska
Format version : Version 4 / Version 2
File size : 12.3 GiB
Duration : 2h 10mn
Overall bit rate : 13.4 Mbps
Encoded date : UTC 2013-06-03 22:02:15
Writing application : mkvmerge v6.1.0 ('Old Devil') built on Mar 2 2013 14:32:37
Writing library : libebml v1.3.0 + libmatroska v1.4.0

Video
ID : 1
Format : AVC
Format/Info : Advanced Video Codec
Format profile : High@L4.1
Format settings, CABAC : Yes
Format settings, ReFrames : 5 frames
Codec ID : V_MPEG4/ISO/AVC
Duration : 2h 10mn
Bit rate : 10.4 Mbps
Width : 1 920 pixels
Height : 800 pixels
Display aspect ratio : 2.40:1
Frame rate : 23.976 fps
Color space : YUV
Chroma subsampling : 4:2:0
Bit depth : 8 bits
Scan type : Progressive
Bits/(Pixel*Frame) : 0.283
Stream size : 9.26 GiB (76%)
Writing library : x264 core 125 r2208 d9d2288
Encoding settings : cabac=1 / ref=5 / deblock=1:-3:-3 / analyse=0x3:0x113 / me=umh / subme=10 / psy=1 / psy_rd=1.00:0.05 / mixed_ref=1 / me_range=32 / chroma_me=1 / trellis=2 / 8x8dct=1 / cqm=0 / deadzone=21,11 / fast_pskip=0 / chroma_qp_offset=-2 / threads=8 / lookahead_threads=1 / sliced_threads=0 / nr=0 / decimate=1 / interlaced=0 / bluray_compat=0 / constrained_intra=0 / bframes=4 / b_pyramid=2 / b_adapt=2 / b_bias=0 / direct=3 / weightb=1 / open_gop=0 / weightp=2 / keyint=250 / keyint_min=23 / scenecut=40 / intra_refresh=0 / rc=2pass / mbtree=0 / bitrate=10425 / ratetol=1.0 / qcomp=0.70 / qpmin=0 / qpmax=69 / qpstep=4 / cplxblur=20.0 / qblur=0.5 / ip_ratio=1.40 / pb_ratio=1.30 / aq=2:1.00
Language : English
Default : Yes
Forced : No

Audio #1
ID : 2
Format : DTS
Format/Info : Digital Theater Systems
Codec ID : A_DTS
Duration : 2h 10mn
Bit rate mode : Constant
Bit rate : 1 510 Kbps
Channel(s) : 6 channels
Channel positions : Front: L C R, Side: L R, LFE
Sampling rate : 48.0 KHz
Bit depth : 24 bits
Compression mode : Lossy
Stream size : 1.38 GiB (11%)
Language : Russian
Default : Yes
Forced : No

Audio #2
ID : 3
Format : DTS
Format/Info : Digital Theater Systems
Codec ID : A_DTS
Duration : 2h 10mn
Bit rate mode : Constant
Bit rate : 1 510 Kbps
Channel(s) : 6 channels
Channel positions : Front: L C R, Side: L R, LFE
Sampling rate : 48.0 KHz
Bit depth : 24 bits
Compression mode : Lossy
Stream size : 1.38 GiB (11%)
Language : English
Default : No
Forced : No

Text #1
ID : 4
Format : UTF-8
Codec ID : S_TEXT/UTF8
Codec ID/Info : UTF-8 Plain Text
Language : Russian
Default : Yes
Forced : No

Text #2
ID : 5
Format : UTF-8
Codec ID : S_TEXT/UTF8
Codec ID/Info : UTF-8 Plain Text
Language : English
Default : No
Forced : No

Menu
00:00:00.000 : en:00:00:00.000
00:02:37.866 : en:00:02:37.866
00:06:17.335 : en:00:06:17.335
00:09:58.139 : en:00:09:58.139
00:11:33.401 : en:00:11:33.401
00:15:21.671 : en:00:15:21.671
00:17:48.276 : en:00:17:48.276
00:20:30.688 : en:00:20:30.688
00:24:03.400 : en:00:24:03.400
00:24:51.281 : en:00:24:51.281
00:27:03.288 : en:00:27:03.288
00:29:39.152 : en:00:29:39.152
00:32:45.380 : en:00:32:45.380
00:34:32.279 : en:00:34:32.279
00:37:24.909 : en:00:37:24.909
00:38:59.712 : en:00:38:59.712
00:40:41.564 : en:00:40:41.564
00:42:12.488 : en:00:42:12.488
00:42:55.031 : en:00:42:55.031
00:45:36.233 : en:00:45:36.233
00:47:25.676 : en:00:47:25.676
00:48:35.329 : en:00:48:35.329
00:53:33.043 : en:00:53:33.043
00:55:25.989 : en:00:55:25.989
00:57:19.353 : en:00:57:19.353
00:59:14.384 : en:00:59:14.384
01:02:08.975 : en:01:02:08.975
01:05:37.142 : en:01:05:37.142
01:06:25.064 : en:01:06:25.064
01:09:59.570 : en:01:09:59.570
01:12:25.174 : en:01:12:25.174
01:15:42.329 : en:01:15:42.329
01:18:25.034 : en:01:18:25.034
01:19:52.579 : en:01:19:52.579
01:21:32.763 : en:01:21:32.763
01:26:21.343 : en:01:26:21.343
01:28:14.080 : en:01:28:14.080
01:30:38.642 : en:01:30:38.642
01:34:29.789 : en:01:34:29.789
01:37:03.234 : en:01:37:03.234
01:37:41.814 : en:01:37:41.814
01:41:36.966 : en:01:41:36.966
01:42:36.525 : en:01:42:36.525
01:45:58.102 : en:01:45:58.102
01:48:39.930 : en:01:48:39.930
01:51:30.475 : en:01:51:30.475
01:54:33.200 : en:01:54:33.200
01:56:01.037 : en:01:56:01.037
01:58:05.495 : en:01:58:05.495
01:59:41.591 : en:01:59:41.591
02:02:56.953 : en:02:02:56.953
02:04:40.223 : en:02:04:40.223


Свернуть


Последний раз редактировалось Shamman 2013-06-10 16:32, всего редактировалось 2 раз(а).
Не в сети
Профиль  
 Добавлено: 2013-06-10 08:27 (спустя 1 час 40 минут)
Стаж: 8 лет 2 месяца
Сообщений: 109
Лайков: 3
А 3д не будет???
Не в сети
Профиль  
 Добавлено: 2013-06-10 15:16 (спустя 6 часов)
Модератор
Аватара пользователя
Стаж: 8 лет 11 месяцев
Сообщений: 516
Спасибок: 26888
Лайков: 1
Что со скринами?
Не в сети
Профиль  
 Добавлено: 2013-06-10 15:36 (спустя 19 минут)
Top-releaser
Аватара пользователя
Стаж: 8 лет 7 месяцев
Сообщений: 1286
Спасибок: 3420
Лайков: 7

-=Elis=-:

Что со скринами?
:-D я и не смотрел, шаблон левый на флэш релизе. сейчас поправлю :-ok-:
Не в сети
Профиль  
 Добавлено: 2013-06-10 16:06 (спустя 30 минут)
Модератор
Аватара пользователя
Стаж: 8 лет 11 месяцев
Сообщений: 516
Спасибок: 26888
Лайков: 1
Shamman
Так в PNG надо бы.
Не в сети
Профиль  
 Добавлено: 2013-06-12 01:07 (спустя 1 день 9 часов)
Аватара пользователя
Стаж: 8 лет 9 месяцев
Сообщений: 1170
Спасибок: 1294
Лайков: 7
успеть бы всё что вышло пересмотреть
Не в сети
Профиль  
 Добавлено: 2013-06-12 15:11 (спустя 14 часов)
Стаж: 7 лет 8 месяцев
Сообщений: 21
скачал... запустил с внешнего на телевизор LG.. пишет не поддерживает аудио кодек..
Не в сети
Профиль  
 Добавлено: 2013-06-12 18:11 (спустя 2 часа 59 минут)
Аватара пользователя
Стаж: 7 лет 11 месяцев
Сообщений: 64
В ДВД5 бы :)
Не в сети
Профиль  
 Добавлено: 2013-07-09 17:34 (спустя 26 дней)
Аватара пользователя
Стаж: 8 лет 7 месяцев
Сообщений: 81
Родионов Денис
потому что lg не поддерживает DTS, качайте AC3
Не в сети
Профиль  
 Добавлено: 2013-07-20 14:36 (спустя 10 дней)
Стаж: 7 лет 8 месяцев
Сообщений: 21
My_Life_Be_Like
спасибо)


Тема поднималась пользователем Shamman 2013-07-20 14:36.
Не в сети
Профиль  
Начать новую темуОтветить на тему  [ Сообщений: 10 ] 
Вы не можете начинать темы
Вы не можете отвечать на сообщения
Вы не можете редактировать свои сообщения
Вы не можете удалять свои сообщения