Правила форума

  • В этом разделе создание новых тем Запрещено.
  • Для создания новых тем пользуйтесь Корневым разделом DVD и HD фильмы.
Начать новую темуОтветить на тему  [ Сообщений: 3 ] 
Торрент файл
Размер: 7.91 GB • Зарегистрирован: 6 месяцев • Статус: Проверено
Скачан: 213 раз • Желающих скачать: 0 • Поблагодарили: 31 раз
 Раздают: 9  |  351 KB/s  ]   Качают: 0  |  0 KB/s  ] 
Сообщения
 Добавлено: 2016-06-01 05:01
DVD Release Group
Аватара пользователя
Стаж: 7 лет 1 месяц
Сообщений: 3570
Спасибок: 247852
Лайков: 1020
Падение Лондона

London Has Fallen


Изображение


Год выпуска: 2016
Страна: США, Великобритания, Болгария
Жанр: Боевик, триллер, криминал
Продолжительность: 01:38:24
Перевод: Профессиональный (полное дублирование)
Режиссер: Бабак Наджафи
В ролях: Джерард Батлер, Аарон Экхарт, Морган Фриман, Алон Абутбул, Валид Зуэйтер, Адель Беншериф, Мехди Дехби, Шивани Гаи, Оуэн Дэвис, Майкл Уилдман
Описание: Действие фильма начинается в Лондоне, где премьер-министр Великобритании погибает при загадочных обстоятельствах. На похоронах безусловно присутствуют руководители западного мира. Но то, что начиналось как наиболее безопасное событие на земле, превращается в опаснейшее покушение на самых мощных мировых лидеров, что в свою очередь ставит под угрозу будущее всего мира. Только три человека сохраняют надежду на предотвращение катастрофы: президент США, его верный помощник — агент спецслужбы и английский агент МИ-6, который никому не доверяет.
Изображение Изображение
Качество: BDRip 1080p
Формат: MKV
Видео кодек: H.264
Аудио кодек: AC3, DTS
Видео: 1920x808 23.98fps 9589kbps
Аудио:
Аудио Rus: AC3 48kHz 6ch 384Kbps
Аудио Eng: DTS 48kHz 6ch 1510Kbps
"MediaInfo"
Формат : Matroska
Версия формата : Version 4 / Version 2
Размер файла : 7,91 Гбайт
Продолжительность : 1 ч. 39 м.
Общий поток : 11,4 Мбит/сек
Название фильма : London.Has.Fallen.2016.BDRip...1080p (S)
Дата кодирования : UTC 2016-05-31 23:03:16
Программа кодирования : mkvmerge v8.3.0 ('Over the Horizon') 64bit
Библиотека кодирования : libebml v1.3.1 + libmatroska v1.4.2

Видео
Идентификатор : 1
Формат : AVC
Формат/Информация : Advanced Video Codec
Профиль формата : High@L4.1
Параметр CABAC формата : Да
Параметр ReFrames формата : 5 кадров
Идентификатор кодека : V_MPEG4/ISO/AVC
Продолжительность : 1 ч. 39 м.
Битрейт : 9589 Кбит/сек
Ширина : 1920 пикселей
Высота : 808 пикселей
Соотношение сторон : 2,40:1
Режим частоты кадров : Постоянный
Частота кадров : 23,976 кадра/сек
Цветовое пространство : YUV
Субдискретизация насыщенности : 4:2:0
Битовая глубина : 8 бит
Тип развёртки : Прогрессивная
Бит/(Пиксели*Кадры) : 0.258
Размер потока : 6,44 Гбайт (81%)
Библиотека кодирования : x264 core 148 r2692 64f4e24
Настройки программы : cabac=1 / ref=5 / deblock=1:0:0 / analyse=0x3:0x133 / me=umh / subme=7 / psy=1 / psy_rd=1.00:0.00 / mixed_ref=1 / me_range=16 / chroma_me=1 / trellis=1 / 8x8dct=1 / cqm=0 / deadzone=21,11 / fast_pskip=0 / chroma_qp_offset=-2 / threads=25 / lookahead_threads=4 / sliced_threads=0 / nr=0 / decimate=1 / interlaced=0 / bluray_compat=0 / constrained_intra=0 / bframes=3 / b_pyramid=2 / b_adapt=1 / b_bias=0 / direct=1 / weightb=1 / open_gop=0 / weightp=2 / keyint=250 / keyint_min=23 / scenecut=40 / intra_refresh=0 / rc_lookahead=40 / rc=2pass / mbtree=1 / bitrate=9589 / ratetol=1.0 / qcomp=0.60 / qpmin=0 / qpmax=69 / qpstep=4 / cplxblur=20.0 / qblur=0.5 / ip_ratio=1.40 / aq=1:1.00
Язык : English
Default : Да
Forced : Нет

Аудио #1
Идентификатор : 2
Формат : AC-3
Формат/Информация : Audio Coding 3
Расширение режима : CM (complete main)
Параметр Endianness формата : Big
Идентификатор кодека : A_AC3
Продолжительность : 1 ч. 39 м.
Вид битрейта : Постоянный
Битрейт : 384 Кбит/сек
Каналы : 6 каналов
Расположение каналов : Front: L C R, Side: L R, LFE
Частота : 48,0 КГц
Битовая глубина : 16 бит
Метод сжатия : С потерями
Размер потока : 273 Мбайт (3%)
Заголовок : DUB [iTunes]
Язык : Russian
Default : Да
Forced : Нет

Аудио #2
Идентификатор : 3
Формат : DTS
Формат/Информация : Digital Theater Systems
Режим : 16
Параметр Endianness формата : Big
Идентификатор кодека : A_DTS
Продолжительность : 1 ч. 39 м.
Вид битрейта : Постоянный
Битрейт : 1509 Кбит/сек
Каналы : 6 каналов
Расположение каналов : Front: L C R, Side: L R, LFE
Частота : 48,0 КГц
Битовая глубина : 24 бит
Метод сжатия : С потерями
Размер потока : 1,05 Гбайт (13%)
Язык : English
Default : Нет
Forced : Нет

Меню
00:00:00.000 : en:00:00:00.000
00:05:23.281 : en:00:05:23.281
00:10:12.987 : en:00:10:12.987
00:15:53.202 : en:00:15:53.202
00:20:13.546 : en:00:20:13.546
00:23:41.462 : en:00:23:41.462
00:28:51.229 : en:00:28:51.229
00:33:30.383 : en:00:33:30.383
00:39:37.208 : en:00:39:37.208
00:45:05.286 : en:00:45:05.286
00:49:43.105 : en:00:49:43.105
00:53:26.954 : en:00:53:26.954
00:58:40.392 : en:00:58:40.392
01:02:42.467 : en:01:02:42.467
01:08:22.598 : en:01:08:22.598
01:12:51.075 : en:01:12:51.075
01:17:35.401 : en:01:17:35.401
01:20:58.270 : en:01:20:58.270
01:26:11.500 : en:01:26:11.500
01:31:42.247 : en:01:31:42.247
Свернуть

"Скриншоты"
Изображение
Изображение
Изображение
Изображение
Свернуть
 Артурыч нравится это.
В сети
Профиль  
 Добавлено: 2016-06-07 14:53 (спустя 6 дней)
Аватара пользователя
Стаж: 8 лет 3 месяца
Возраст: 33
Сообщений: 319
Спасибок: 603
Лайков: 34
Средненько конечно, но один вечер скоротать можно.

P.S. Интересно насколько мало получает телохранитель президента США, что в свой долгожданный отгул он мечтает не отдохнуть, а доделать ремонт в детской комнате.
Неужели он не может позволить себе нанять профессионалов.
Бред.. :du_ma_et:
Не в сети
Профиль  
 Добавлено: 2016-09-10 19:32 (спустя 3 месяца 3 дня)
Стаж: 8 месяцев
Сообщений: 1
Ну есть люди которые любят делать все сами своими руками, как бы с любовью. ))
Не в сети
Профиль  
Начать новую темуОтветить на тему  [ Сообщений: 3 ] 
Вы не можете начинать темы
Вы не можете отвечать на сообщения
Вы не можете редактировать свои сообщения
Вы не можете удалять свои сообщения