Правила форума

  • В этом разделе создание новых тем Запрещено.
  • Для создания новых тем пользуйтесь Корневым разделом DVD и HD фильмы.
Начать новую темуОтветить на тему  [ Сообщений: 6 ] 
Торрент файл
Размер: 10.21 GB • Зарегистрирован: 3 года 8 месяцев • Статус: Проверено
Скачан: 140 раз • Желающих скачать: 0 • Поблагодарили: 36 раз
 Раздают: 0  |  0 KB/s  ]   Качают: 0  |  0 KB/s  ] 
 Полного источника не было 14 часов 
Сообщения
 Добавлено: 2013-03-15 00:44
Аватара пользователя
Стаж: 9 лет 1 месяц
Сообщений: 8113
Спасибок: 122344
Лайков: 1196
Пакт / The Pact

«Some doors should never be opened.»

Изображение


Год выпуска: 2012
Страна: Изображение США
Жанр: ужасы, триллер, детектив
Продолжительность: 01:28:52
Субтитры: Русские, английские
Перевод: Профессиональный (многоголосый, закадровый) [Лицензия]


Режиссёр: Николас МакКарти
Сценарист: Николас МакКарти
Продюсер: Росс М. Динерштейн, Джейм Бурк, Джэми Кармайкл
Оператор: Бриджер Нилсон
Композитор: Ронен Ланда

В ролях: Кейти Лотц, Кэтлин Роуз Перкинс, Хейли Хадсон, Сэмюэл Болл, Марк Стегер, Агнес Брукнер, Каспер Ван Дин, Анджини Танеджа Азар, Бо Баррет, Дакота Брайт, Джеффри Ти Фергюсон, Рэйчел Кан, Сантьяго Сегура, Хо-Кван Тсе, Сэм Цуккерман

Описание: После смерти матери сестры Николь и Энни неохотно возвращаются в дом своего детства. Во время пребывания там, ночью, сестры чувствуют таинственное присутствие чего-то или кого-то: пугающий шум, движение объектов. Девушкам предстоит пережить несколько часов кошмара, чтобы узнать об ужасном прошлом их матери…

Изображение Изображение

Релиз группы: Изображение Раздача группы: Изображение

Качество: BDRip (1080p)
Формат: Matroska
Видео: MPEG4 AVC, 14.5 Мбит/с, 1920x1032
Аудио №1: Русский (AC3, 48,0 КГц, 6 ch, 448 Кбит/с)
Аудио №2: Английский (DTS, 48,0 КГц, 6 ch, 1509 Кбит/c)

MediaInfo
Общее
Уникальный идентификатор : 204212567356467118623918398237148870761 (0x99A1E8EBE094E5078320C7C8BCB67869)
Полное имя : I:\Pact.2012.P.BDRip.1080p.R.G.Daredevil.mkv
Формат : Matroska
Версия формата : Version 2
Размер файла : 10,2 Гбайт
Продолжительность : 1 ч. 28 м.
Общий поток : 16,5 Мбит/сек
Название фильма : IRONCLUB
Дата кодирования : UTC 2013-03-14 15:27:12
Программа кодирования : mkvmerge v5.2.0 ('I can't explain') built on Dec 18 2011 18:12:03
Библиотека кодирования : libebml v1.2.3 + libmatroska v1.3.0

Видео
Идентификатор : 1
Формат : AVC
Формат/Информация : Advanced Video Codec
Профиль формата : High@L4.1
Параметр CABAC формата : Да
Параметр ReFrames формата : 4 кадра
Идентификатор кодека : V_MPEG4/ISO/AVC
Продолжительность : 1 ч. 28 м.
Битрейт : 14,5 Мбит/сек
Ширина : 1920 пикселей
Высота : 1032 пикселя
Соотношение сторон : 1,85:1
Режим частоты кадров : Постоянный
Частота кадров : 23,976 кадра/сек
Цветовое пространство : YUV
Субдискретизация насыщенности : 4:2:0
Битовая глубина : 8 бит
Тип развёртки : Прогрессивная
Бит/(Пиксели*Кадры) : 0.305
Размер потока : 8,79 Гбайт (86%)
Заголовок : The.Pact.2012.1080p.BluRay.1080p.DTS.x264-HDMaNiAcS
Библиотека кодирования : x264 core 128 r2216 198a7ea
Настройки программы : cabac=1 / ref=4 / deblock=1:-3:-3 / analyse=0x3:0x113 / me=tesa / subme=11 / psy=1 / psy_rd=0.95:0.00 / mixed_ref=1 / me_range=24 / chroma_me=1 / trellis=2 / 8x8dct=1 / cqm=0 / deadzone=21,11 / fast_pskip=1 / chroma_qp_offset=-2 / threads=12 / lookahead_threads=2 / sliced_threads=0 / nr=0 / decimate=1 / interlaced=0 / bluray_compat=0 / constrained_intra=0 / bframes=8 / b_pyramid=2 / b_adapt=2 / b_bias=0 / direct=3 / weightb=1 / open_gop=0 / weightp=2 / keyint=240 / keyint_min=23 / scenecut=40 / intra_refresh=0 / rc=2pass / mbtree=0 / bitrate=14500 / ratetol=1.0 / qcomp=0.55 / qpmin=10 / qpmax=69 / qpstep=4 / cplxblur=20.0 / qblur=0.5 / ip_ratio=1.40 / pb_ratio=1.30 / aq=2:0.75
Язык : English
Default : Да
Forced : Да

Аудио #1
Идентификатор : 2
Формат : AC-3
Формат/Информация : Audio Coding 3
Расширение режима : CM (complete main)
Параметр Endianness формата : Big
Идентификатор кодека : A_AC3
Продолжительность : 1 ч. 28 м.
Вид битрейта : Постоянный
Битрейт : 448 Кбит/сек
Каналы : 6 каналов
Расположение каналов : Front: L C R, Side: L R, LFE
Частота : 48,0 КГц
Битовая глубина : 16 бит
Метод сжатия : С потерями
Размер потока : 285 Мбайт (3%)
Заголовок : DD 5.1 @ 448 kbps - MVO, R5
Язык : Russian
Default : Да
Forced : Да

Аудио #2
Идентификатор : 3
Формат : DTS
Формат/Информация : Digital Theater Systems
Режим : 16
Параметр Endianness формата : Big
Идентификатор кодека : A_DTS
Продолжительность : 1 ч. 28 м.
Вид битрейта : Постоянный
Битрейт : 1509 Кбит/сек
Каналы : 6 каналов
Расположение каналов : Front: L C R, Side: L R, LFE
Частота : 48,0 КГц
Битовая глубина : 24 бит
Метод сжатия : С потерями
Размер потока : 959 Мбайт (9%)
Заголовок : DTS 5.1 @ 1536 kbps
Язык : English
Default : Нет
Forced : Нет

Текст #1
Идентификатор : 4
Формат : UTF-8
Идентификатор кодека : S_TEXT/UTF8
Идентификатор кодека/Информация : UTF-8 Plain Text
Заголовок : Dr.pro
Язык : Russian
Default : Нет
Forced : Нет

Текст #2
Идентификатор : 5
Формат : UTF-8
Идентификатор кодека : S_TEXT/UTF8
Идентификатор кодека/Информация : UTF-8 Plain Text
Язык : English
Default : Нет
Forced : Нет

Меню
00:00:00.000 : en:Chapter 00
00:09:43.583 : en:Chapter 01
00:14:56.228 : en:Chapter 02
00:25:09.424 : en:Chapter 03
00:32:13.264 : en:Chapter 04
00:39:17.438 : en:Chapter 05
00:47:19.837 : en:Chapter 06
00:54:20.173 : en:Chapter 07
01:01:38.778 : en:Chapter 08
01:10:35.231 : en:Chapter 09
01:14:57.618 : en:Chapter 10
01:25:17.028 : en:Chapter 11
Свернуть
Скриншоты
Изображение
Изображение
Изображение
Изображение
Свернуть
В сети
Профиль  
 Добавлено: 2013-03-20 17:08 (спустя 5 дней)
Стаж: 5 лет 3 месяца
Сообщений: 2
Кто посмотрел, как фильм?
Не в сети
Профиль  
 Добавлено: 2013-03-22 07:58 (спустя 1 день 14 часов)
Стаж: 8 лет 1 месяц
Сообщений: 216
Лайков: 24
Не смотрел, но все равно качаю, так как больше нечего смотреть.
Не в сети
Профиль  
 Добавлено: 2013-03-22 11:14 (спустя 3 часа)
Стаж: 7 лет
Сообщений: 18
фильм хороший, качайте
Не в сети
Профиль  
 Добавлено: 2013-03-24 14:35 (спустя 2 дня 3 часа)
Стаж: 5 лет 3 месяца
Сообщений: 1
Перевод любительский
Не в сети
Профиль  
 Добавлено: 2013-03-28 00:29 (спустя 3 дня)
Стаж: 5 лет 9 месяцев
Сообщений: 2
филь как жанр "ужасы" вообще не катит..
так себе, смотрел с пивом, без и досматривать не стал бы)
Не в сети
Профиль  
Начать новую темуОтветить на тему  [ Сообщений: 6 ] 
Вы не можете начинать темы
Вы не можете отвечать на сообщения
Вы не можете редактировать свои сообщения
Вы не можете удалять свои сообщения