Правила форума

  • В этом разделе создание новых тем Запрещено.
  • Для создания новых тем пользуйтесь Корневым разделом DVD и HD фильмы.
Начать новую темуОтветить на тему  [ Сообщений: 5 ] 
Торрент файл
Размер: 7.45 GB • Зарегистрирован: 5 лет • Статус: Проверено
Скачан: 94 раза • Желающих скачать: 0 • Поблагодарили: 14 раз
 Раздают: 0  |  0 KB/s  ]   Качают: 0  |  0 KB/s  ] 
 Полного источника не было 2 года 6 месяцев 
Сообщения
 Добавлено: 2011-11-23 22:04
Top-releaser
Аватара пользователя
Стаж: 7 лет 3 месяца
Возраст: 25
Сообщений: 1036
Спасибок: 2694
Лайков: 9
Палата / The Ward

«Only Sanity Can Keep You Alive»

Изображение



Год выхода: 2010
Страна: США

Жанр: ужасы, триллер
Продолжительность: 01:28:55
Перевод: Дублированный [Blu-ray Rus]

Режиссер: Джон Карпентер
Сценарий: Майкл Расмуссен, Шоун Расмуссен
Продюсер: Питер Блок, Даг Манкофф, Майк Маркус, ...
Оператор: Харон Орбах
Композитор: Марк Килиан

В ролях: Эмбер Хёрд, Линдси Фонсека, Даниэль Панабэйкер, Джаред Харрис, Мика Бурем, Мэми Гаммер, Рейла Афродит, Лора Ли, Шон Кук, Сидни Свини

Описание: Кристен проходит лечение в психиатрической лечебнице. Вместе с ней проходят лечение еще четыре девушки. По ночам, когда больница погружается во тьму, она слышит странные пугающие звуки и понимает, что они тут не одни. Одна за другой девушки начинают исчезать, и Кристен понимает, что должна как можно скорее выбраться отсюда. Пытаясь сбежать, она понимает, что истинная природа звуков намного ужаснее, чем могло показаться вначале.


ИзображениеИзображение

Pаздача группы:Изображение

Качество: BDRip 1080p
Формат: Mkv

Видео:MPEG4 Video (H264) 1920x818 23.98fps 8 995 Kbps
Аудио 1: [Rus] DTS 48000Hz 6ch 1 510 Kbps
Аудио 2: [Eng] DTS 48000Hz 6ch 1 510 Kbps
Subtitle: Utf-8

Изображение

MediaInfo
General
Unique ID : 182912465499899463158814025763740779044 (0x899BA8D1C46F611EB15D389053E10224)
Complete name : H:\Download\Palata.2010.D.BDRip.1080p.mkv
Format : Matroska
Format version : Version 2
File size : 7.45 GiB
Duration : 1h 28mn
Overall bit rate : 12.0 Mbps
Movie name : -::: ed_rez :::-
Encoded date : UTC 2011-11-23 11:12:08
Writing application : mkvmerge v5.0.1 ('Es ist Sommer') built on Oct 9 2011 11:55:43
Writing library : libebml v1.2.2 + libmatroska v1.3.0

Video
ID : 1
Format : AVC
Format/Info : Advanced Video Codec
Format profile : High@L4.1
Format settings, CABAC : Yes
Format settings, ReFrames : 5 frames
Codec ID : V_MPEG4/ISO/AVC
Duration : 1h 28mn
Bit rate : 8 995 Kbps
Width : 1 920 pixels
Height : 818 pixels
Display aspect ratio : 2.35:1
Frame rate : 23.976 fps
Color space : YUV
Chroma subsampling : 4:2:0
Bit depth : 8 bits
Scan type : Progressive
Bits/(Pixel*Frame) : 0.239
Stream size : 5.43 GiB (73%)
Title : Палата / The Ward (2010)
Writing library : x264 core 114 r1924 08d04a4
Encoding settings : cabac=1 / ref=5 / deblock=1:-3:-3 / analyse=0x3:0x113 / me=umh / subme=10 / psy=1 / psy_rd=1.00:0.05 / mixed_ref=1 / me_range=32 / chroma_me=1 / trellis=2 / 8x8dct=1 / cqm=2 / deadzone=21,11 / fast_pskip=0 / chroma_qp_offset=-2 / threads=8 / sliced_threads=0 / nr=0 / decimate=1 / interlaced=0 / constrained_intra=0 / bframes=6 / b_pyramid=2 / b_adapt=2 / b_bias=0 / direct=3 / weightb=1 / open_gop=0 / weightp=2 / keyint=250 / keyint_min=23 / scenecut=40 / intra_refresh=0 / rc_lookahead=50 / rc=2pass / mbtree=1 / bitrate=8995 / ratetol=1.0 / qcomp=0.70 / qpmin=1 / qpmax=63 / qpstep=4 / cplxblur=20.0 / qblur=0.5 / vbv_maxrate=40000 / vbv_bufsize=40000 / nal_hrd=none / ip_ratio=1.40 / aq=2:0.80
Language : English

Audio #1
ID : 2
Format : DTS
Format/Info : Digital Theater Systems
Codec ID : A_DTS
Duration : 1h 28mn
Bit rate mode : Constant
Bit rate : 1 510 Kbps
Channel(s) : 6 channels
Channel positions : Front: L C R, Side: L R, LFE
Sampling rate : 48.0 KHz
Bit depth : 16 bits
Compression mode : Lossy
Stream size : 960 MiB (13%)
Title : [DUB] DTS, 6 ch, 1510 Кбит/с
Language : Russian

Audio #2
ID : 3
Format : DTS
Format/Info : Digital Theater Systems
Codec ID : A_DTS
Duration : 1h 28mn
Bit rate mode : Constant
Bit rate : 1 510 Kbps
Channel(s) : 6 channels
Channel positions : Front: L C R, Side: L R, LFE
Sampling rate : 48.0 KHz
Bit depth : 24 bits
Compression mode : Lossy
Stream size : 960 MiB (13%)
Title : [Original] DTS, 6 ch, 1510 Кбит/с
Language : English

Text
ID : 4
Format : UTF-8
Codec ID : S_TEXT/UTF8
Codec ID/Info : UTF-8 Plain Text
Language : English


Свернуть
Скриншоты
Изображение
Изображение
Изображение
Изображение
Изображение
Свернуть
Не в сети
Профиль  
 Добавлено: 2011-11-24 21:45 (спустя 23 часа)
Аватара пользователя
Стаж: 6 лет 7 месяцев
Сообщений: 564
Спасибок: 1110
Лайков: 3
как фильмец стоит какчать???
Не в сети
Профиль  
 Добавлено: 2011-11-24 22:01 (спустя 15 минут)
Аватара пользователя
Стаж: 8 лет 3 месяца
Сообщений: 1690
Спасибок: 21277
Лайков: 6
Рейтинг, в принципе, оправданный.
Муть скучнейшая, ничего особенного. Жаль потраченного времени, но куда деваться, лучше самому в этом убедиться.
Не в сети
Профиль  
 Добавлено: 2011-11-29 17:51 (спустя 4 дня)
Стаж: 5 лет 1 месяц
Сообщений: 17
хороший фильм!!!! да девчонку плющило!!! в чем то лучше запрещенного приема
Не в сети
Профиль  
 Добавлено: 2011-12-03 21:02 (спустя 4 дня)
Аватара пользователя
Стаж: 6 лет 7 месяцев
Сообщений: 564
Спасибок: 1110
Лайков: 3
ну так фильм на 1 раз....

Жанр: ужасы
вранье,
ну а хотя было там пару страшных моментов, и то потому что неожиданно)


З.Ы. помойму фильмов с таким же сюжетом уже несколько десятков, ну нафига их снимают???
Не в сети
Профиль  
Начать новую темуОтветить на тему  [ Сообщений: 5 ] 
Вы не можете начинать темы
Вы не можете отвечать на сообщения
Вы не можете редактировать свои сообщения
Вы не можете удалять свои сообщения