Правила форума

  • В этом разделе создание новых тем Запрещено.
  • Для создания новых тем пользуйтесь Корневым разделом DVD и HD фильмы.
Начать новую темуОтветить на тему  [ 1 сообщение ] 
Торрент файл
Размер: 5.59 GB • Зарегистрирован: 4 года 1 месяц • Статус: Проверено
Скачан: 112 раз • Желающих скачать: 0 • Поблагодарили: 19 раз
 Раздают: 0  |  0 KB/s  ]   Качают: 0  |  0 KB/s  ] 
 Полного источника не было 1 год 4 месяца 
Сообщения
 Добавлено: 2012-10-11 18:35
Руководитель релиз-группы
Аватара пользователя
Стаж: 7 лет 4 месяца
Возраст: 31
Сообщений: 3407
Спасибок: 46729
Лайков: 5
Изображение

Папа-досвидос
That's My Boy


Год выпуска: 2012
Страна: США
Слоган: «Пиво и другие семейные ценности»
Жанр: комедия
Продолжительность: 01:56:02
Перевод: Профессиональный (полное дублирование) [лицензия]
EXTENDED версия! Отсутствует около 1.5 минуты перевода!
Режиссер: Шон Андерс
Сценарий: Дэвид Каспе
Продюсер: Аллен Коверт, Джек Джиррапуто, Хезер Парри, Адам Сэндлер, Бэрри Бернарди
Оператор: Брэндон Трост
Композитор: Руперт Грегсон-Уильямс
В ролях: Адам Сэндлер, Энди Сэмберг, Лейтон Мистер, Майло Вентимилья, Ванилла Айс, Пегги Стюарт, Блейк Кларк, Меган Фэй, Тони Орландо, Джеймс Каан, Сьюзен Сарандон, Уилл Форте
Бюджет: $70 000 000
Сборы в мире: $55 768 976
Описание: Переспав с «очень плохой училкой» прямо в школе, тинейджер становится отцом «по залету», а его зрелая пассия попадает в тюрьму за совращение малолетнего. Теперь юный папа-одиночка вынужден заботиться о сыне до его совершеннолетия, а затем благополучно исчезает в неизвестном направлении. И вот, много лет спустя, оказавшись на мели, эксцентричный папаша-инфантил словно ураган врывается в жизнь сына накануне его свадьбы и своими безумными выходками переворачивает всё вверх дном.
Изображение
MPAA: Изображение
Раздача группы: Изображение
Качество: BDRip, 720p
Формат: Matroska
Видео: AVC; 1280x534 (2.35:1); 4864 Kbps; 23,976 fps; 0,297 bit/pixel
Аудио №1: AC3; 384 Kbps; CBR; 6 ch Russian
Аудио №2: DTS; 1509 Kbps; CBR; 6 ch; 24 bit English
Субтитры: Английские
Изображение
mediainfo
Формат : Matroska
Версия формата : Version 2
Размер файла : 5,59 Гбайт
Продолжительность : 1 ч. 56 м.
Общий поток : 6895 Кбит/сек
Название фильма : -=HDTracker=-
Дата кодирования : UTC 2012-10-10 09:11:27
Программа кодирования : mkvmerge v4.4.0 ('Die Wiederkehr') сборка от Oct 31 2010 21:52:48
Библиотека кодирования : libebml v1.0.0 + libmatroska v1.0.0

Видео
Идентификатор : 1
Формат : AVC
Формат/Информация : Advanced Video Codec
Профиль формата : High@L4.1
Параметр CABAC формата : Да
Параметр ReFrames формата : 11 кадров
Идентификатор кодека : V_MPEG4/ISO/AVC
Продолжительность : 1 ч. 56 м.
Битрейт : 5000 Кбит/сек
Ширина : 1280 пикселей
Высота : 534 пикселя
Соотношение сторон : 2,40:1
Частота кадров : 23,976 кадра/сек
Цветовое пространство : YUV
Субдискретизация насыщенности : 4:2:0
Битовая глубина : 8 бит
Тип развёртки : Прогрессивная
Бит/(Пиксели*Кадры) : 0.305
Размер потока : 3,94 Гбайт (71%)
Заголовок : Видеоряд
Библиотека кодирования : x264 core 116 r2057 0ba8a9c
Настройки программы : cabac=1 / ref=11 / deblock=1:-3:-3 / analyse=0x3:0x133 / me=umh / subme=10 / psy=1 / psy_rd=1.00:0.00 / mixed_ref=1 / me_range=32 / chroma_me=1 / trellis=2 / 8x8dct=1 / cqm=0 / deadzone=21,11 / fast_pskip=0 / chroma_qp_offset=-2 / threads=14 / sliced_threads=0 / nr=0 / decimate=0 / interlaced=0 / bluray_compat=0 / constrained_intra=0 / bframes=7 / b_pyramid=2 / b_adapt=2 / b_bias=0 / direct=3 / weightb=1 / open_gop=0 / weightp=2 / keyint=250 / keyint_min=23 / scenecut=40 / intra_refresh=0 / rc_lookahead=40 / rc=2pass / mbtree=0 / bitrate=5000 / ratetol=1.0 / qcomp=0.65 / qpmin=0 / qpmax=40 / qpstep=4 / cplxblur=20.0 / qblur=0.5 / vbv_maxrate=50000 / vbv_bufsize=50000 / nal_hrd=none / ip_ratio=1.25 / pb_ratio=1.25 / aq=1:0.65

Аудио #1
Идентификатор : 2
Формат : AC-3
Формат/Информация : Audio Coding 3
Расширение режима : CM (complete main)
Идентификатор кодека : A_AC3
Продолжительность : 1 ч. 56 м.
Вид битрейта : Постоянный
Битрейт : 384 Кбит/сек
Каналы : 6 каналов
Расположение каналов : Front: L C R, Side: L R, LFE
Частота : 48,0 КГц
Битовая глубина : 16 бит
Метод сжатия : С потерями
Размер потока : 319 Мбайт (6%)
Заголовок : Дублированный
Язык : Russian

Аудио #2
Идентификатор : 3
Формат : DTS
Формат/Информация : Digital Theater Systems
Идентификатор кодека : A_DTS
Продолжительность : 1 ч. 56 м.
Вид битрейта : Постоянный
Битрейт : 1510 Кбит/сек
Каналы : 6 каналов
Расположение каналов : Front: L C R, Side: L R, LFE
Частота : 48,0 КГц
Битовая глубина : 24 бит
Метод сжатия : С потерями
Задержка видео : 11 мс.
Размер потока : 1,22 Гбайт (22%)
Заголовок : Английский
Язык : English

Текст #1
Идентификатор : 4
Формат : UTF-8
Идентификатор кодека : S_TEXT/UTF8
Идентификатор кодека/Информация : UTF-8 Plain Text
Заголовок : Английские (full)
Язык : English

Текст #2
Идентификатор : 5
Формат : UTF-8
Идентификатор кодека : S_TEXT/UTF8
Идентификатор кодека/Информация : UTF-8 Plain Text
Заголовок : Английские (SDH)
Язык : English

Меню
00:00:00.000 : en:00:00:00.000
00:08:43.314 : en:00:08:43.314
00:13:34.397 : en:00:13:34.397
00:20:24.056 : en:00:20:24.056
00:29:34.940 : en:00:29:34.940
00:37:35.044 : en:00:37:35.044
00:42:40.099 : en:00:42:40.099
00:48:39.500 : en:00:48:39.500
00:55:37.209 : en:00:55:37.209
01:01:34.524 : en:01:01:34.524
01:08:21.431 : en:01:08:21.431
01:16:37.968 : en:01:16:37.968
01:24:46.832 : en:01:24:46.832
01:29:29.864 : en:01:29:29.864
01:35:47.408 : en:01:35:47.408
01:47:11.759 : en:01:47:11.759

Свернуть
"Знаете ли Вы, что..."
  • Адам Сэндлер всего лишь на 12 лет старше Энди Сэмберга, который играет роль его сына в фильме.
  • Сьюзен Сарандон так же играла мать Энди Сэмберга в телешоу «Субботним вечером в прямом эфире» в эпизодах «Motherlover» и «3-Way (The Golden Rule)» (сцены сделаны для телешоу совместно комедийной группой «The Lonely Island» (участником которой является Сэмберг) и Джастином Тимберлэйком).
  • Сьюзен Сарандон так же играла учительницу, у которой были взаимоотношения с несовершеннолетним студентом в сериале «Студия 30», эпизод «Queen of Jordan».
  • Машины полиции Бостона перекочевали из того же вымышленного района A-8, который был в фильмах «Город воров» (2010) и «Boston`s Finest» (2010).
  • Рекс Райан играет эпизодическую роль фаната команды Патриотов (The Patriots). В реальной жизни он - главный тренер Нью-Йорк Джетс (New York Jets), которые являются основными конкурентами Патриотов.
  • Ева Амурри играет «молодую версию» своей реальной матери Сьюзен Сарандон.
  • В сцене школьных воспоминаний (в 1984 году) показывают подростка Донни, который несет коробку для завтрака с надписью «ALF», премьера же сериала состоялась лишь в 1986 году.
  • Когда Тодд и Донни посещают Мэри в тюрьме, ее оранжевый комбинезон меняется: сначала застегнут, потом расстегнут и затем застегнут снова, до тех пор пока она сама не расстегивает его.
  • Несмотря на то, что Донни холост, у него виден след от обручального кольца на пальце. Это наиболее заметно во время объятий после мальчишника.
Свернуть
Скриншоты

Изображение

Изображение

Изображение

Изображение
Свернуть
Не в сети
Профиль  
Начать новую темуОтветить на тему  [ 1 сообщение ] 
Вы не можете начинать темы
Вы не можете отвечать на сообщения
Вы не можете редактировать свои сообщения
Вы не можете удалять свои сообщения