Правила форума

  • В этом разделе создание новых тем Запрещено.
  • Для создания новых тем пользуйтесь Корневым разделом DVD и HD фильмы.
Начать новую темуОтветить на тему  [ Сообщений: 7 ] 
Торрент файл
Размер: 10.15 GB • Зарегистрирован: 4 года 1 месяц • Статус: Проверено
Скачан: 371 раз • Желающих скачать: 0 • Поблагодарили: 63 раза
 Раздают: 0  |  0 KB/s  ]   Качают: 0  |  0 KB/s  ] 
 Полного источника не было 8 месяцев 
Сообщения
 Добавлено: 2012-10-10 16:08
Модератор релиз-группы
Аватара пользователя
Стаж: 9 лет 1 месяц
Возраст: 97
Сообщений: 11659
Спасибок: 6530
Лайков: 269
Папа-досвидос / That's My Boy

Изображение

Год выпуска: 2012
Жанр: Комедия
Страна: США, Columbia Pictures, Happy Madison Productions
Продолжительность: 01:56:02
Перевод: Дублированный [EXTENDED версия! Отсутствует около 1.5 минуты перевода!
Видеоряд от HDChina.
]
Оригинальная аудиодорожка
Субтитры: Английские

Режиссер: Шон Андерс

В ролях: Адам Сэндлер, Энди Сэмберг, Лейтон Мистер, Майло Вентимилья, Ванилла Айс, Пегги Стюарт, Блейк Кларк, Меган Фэй, Тони Орландо, Джеймс Каан, Сьюзен Сарандон, Уилл Форте, Рэйчел Дрэч, Ник Свардсон, Луэнелль, Сиара, Ана Гастейер, Ева Амурри, Джастин Уивер, Дэн Патрик, Рекс Райан, Дэна Мин Гудман, Джулия Ли Волов, Ребекка Маршалл, Эбигейл Клейн, Джеки Сэндлер, Эрин Эндрюс, Сэм Кауфман, Дэнни Мендельсон, Колин Куинн, Пэтти Росс, Крис Титон, Айан Зиринг, Майк Сэндлер, Сэди Сэндлер, Санни Сэндлер, Абдулаи Нгом, Барон Дэвис, Эмбер Пол, Брэд Грюнберг, Деннис Дуган, Нэнси Йи, Кодзи Катаока, Джейсон Венеция, Скотт Т. Бердсли, Сью Ли, Роберт Харви, Пол Пабст

О фильме: Переспав с «очень плохой училкой» прямо в школе, тинейджер становится отцом «по залету», а его зрелая пассия попадает в тюрьму за совращение малолетнего. Теперь юный папа-одиночка вынужден заботиться о сыне до его совершеннолетия, а затем благополучно исчезает в неизвестном направлении. И вот, много лет спустя, оказавшись на мели, эксцентричный папаша-инфантил словно ураган врывается в жизнь сына накануне его свадьбы, и своими безумными выходками переворачивает всё вверх дном.
Изображение
Качество: BDRip (1080p)
Видео: MPEG-4 AVC, 10.6 Мбит/с, 1920x800, 23.976 кадр/с
Аудио: Русский (AC3, 6 ch, 384 Кбит/с)
Аудио: Английский (DTS, 6 ch, 1510 Кбит/с)
Субтитры: Английские

скриншоты
Изображение

Изображение

Изображение
Свернуть
Mi
Format : Matroska
Format version : Version 2
File size : 10.1 GiB
Duration : 1h 56mn
Overall bit rate : 12.5 Mbps
Movie name : Respector
Encoded date : UTC 2012-10-10 10:20:58
Writing application : mkvmerge v5.5.0 ('Healer') built on Apr 24 2012 23:47:03
Writing library : libebml v1.2.3 + libmatroska v1.3.0

Video
ID : 1
Format : AVC
Format/Info : Advanced Video Codec
Format profile : High@L4.1
Format settings, CABAC : Yes
Format settings, ReFrames : 5 frames
Codec ID : V_MPEG4/ISO/AVC
Duration : 1h 56mn
Bit rate : 10.6 Mbps
Width : 1 920 pixels
Height : 800 pixels
Display aspect ratio : 2.40:1
Frame rate : 23.976 fps
Color space : YUV
Chroma subsampling : 4:2:0
Bit depth : 8 bits
Scan type : Progressive
Bits/(Pixel*Frame) : 0.289
Stream size : 8.41 GiB (83%)
Writing library : x264 core 125 r2208 d9d2288
Encoding settings : cabac=1 / ref=5 / deblock=1:-3:-3 / analyse=0x3:0x133 / me=umh / subme=10 / psy=1 / psy_rd=1.00:0.00 / mixed_ref=1 / me_range=48 / chroma_me=1 / trellis=2 / 8x8dct=1 / cqm=0 / deadzone=21,11 / fast_pskip=1 / chroma_qp_offset=-2 / threads=12 / lookahead_threads=2 / sliced_threads=0 / nr=0 / decimate=0 / interlaced=0 / bluray_compat=0 / constrained_intra=0 / bframes=7 / b_pyramid=2 / b_adapt=2 / b_bias=0 / direct=3 / weightb=1 / open_gop=0 / weightp=2 / keyint=250 / keyint_min=23 / scenecut=40 / intra_refresh=0 / rc_lookahead=80 / rc=2pass / mbtree=1 / bitrate=10635 / ratetol=1.0 / qcomp=0.60 / qpmin=0 / qpmax=69 / qpstep=4 / cplxblur=20.0 / qblur=0.5 / vbv_maxrate=30000 / vbv_bufsize=30000 / nal_hrd=none / ip_ratio=1.50 / aq=1:1.00
Language : English
Default : Yes
Forced : No

Audio #1
ID : 2
Format : AC-3
Format/Info : Audio Coding 3
Mode extension : CM (complete main)
Format settings, Endianness : Big
Codec ID : A_AC3
Duration : 1h 56mn
Bit rate mode : Constant
Bit rate : 384 Kbps
Channel(s) : 6 channels
Channel positions : Front: L C R, Side: L R, LFE
Sampling rate : 48.0 KHz
Bit depth : 16 bits
Compression mode : Lossy
Stream size : 319 MiB (3%)
Language : Russian
Default : Yes
Forced : Yes

Audio #2
ID : 3
Format : DTS
Format/Info : Digital Theater Systems
Codec ID : A_DTS
Duration : 1h 56mn
Bit rate mode : Constant
Bit rate : 1 510 Kbps
Channel(s) : 6 channels
Channel positions : Front: L C R, Side: L R, LFE
Sampling rate : 48.0 KHz
Bit depth : 24 bits
Compression mode : Lossy
Stream size : 1.22 GiB (12%)
Language : English
Default : No
Forced : No

Text
ID : 4
Format : UTF-8
Codec ID : S_TEXT/UTF8
Codec ID/Info : UTF-8 Plain Text
Language : English
Default : No
Forced : No

Свернуть
_________________
Изображение
Не в сети
Профиль  
 Добавлено: 2012-10-10 16:25 (спустя 17 минут)
Аватара пользователя
Стаж: 8 лет 1 месяц
Возраст: 27
Сообщений: 176
Спасибок: 968
Лайков: 1
Артурыч
:co_ol:
Не в сети
Профиль  
 Добавлено: 2012-10-10 20:13 (спустя 3 часа)
Аватара пользователя
Стаж: 8 лет 3 месяца
Возраст: 29
Сообщений: 109
Спасибок: 3
что с переводом?
_________________
Изображение
Не в сети
Профиль  
 Добавлено: 2012-10-10 22:20 (спустя 2 часа 7 минут)
Аватара пользователя
Стаж: 9 лет
Возраст: 32
Сообщений: 239
Спасибок: 39

pspsps:

что с переводом?
угу?
Не в сети
Профиль  
 Добавлено: 2012-10-11 17:29 (спустя 19 часов)
Стаж: 8 лет 10 месяцев
Сообщений: 172
а обычная версия будет?
Не в сети
Профиль  
 Добавлено: 2012-10-15 21:50 (спустя 4 дня)
Аватара пользователя
Стаж: 7 лет 2 месяца
Сообщений: 119
Лайков: 2
Такая пошлятина...
Не в сети
Профиль  
 Добавлено: 2012-11-04 21:13 (спустя 19 дней)
Стаж: 4 года 1 месяц
Сообщений: 1
Как кино стоит качать?
Не в сети
Профиль  
Начать новую темуОтветить на тему  [ Сообщений: 7 ] 
Вы не можете начинать темы
Вы не можете отвечать на сообщения
Вы не можете редактировать свои сообщения
Вы не можете удалять свои сообщения