Правила форума

  • В этом разделе создание новых тем Запрещено.
  • Для создания новых тем пользуйтесь Корневым разделом DVD и HD фильмы.
Начать новую темуОтветить на тему  [ 1 сообщение ] 
Торрент файл
Размер: 6.88 GB • Зарегистрирован: 3 года 10 месяцев • Статус: Проверено
Скачан: 24 раза • Желающих скачать: 0 • Поблагодарили: 9 раз
 Раздают: 0  |  0 KB/s  ]   Качают: 0  |  0 KB/s  ] 
 Полного источника не было 2 года 8 месяцев 
Сообщения
 Добавлено: 2013-01-24 22:53
Модератор релиз-группы
Аватара пользователя
Стаж: 7 лет 8 месяцев
Возраст: 29
Сообщений: 9789
Спасибок: 23733
Лайков: 103
Изображение

Папе снова 17
17 Again


Год выпуска: 2009
Страна: США
Слоган: «Кто сказал, что молодость уходит?»
Жанр: фэнтези, драма, мелодрама, комедия
Продолжительность: 01:41:55
Перевод: Дублированный
Режиссер: Бёрр Стирс
Сценарий: Джейсон Филарди
Продюсер: Дженнифер Джибгот, Адам Шенкман, Джейсон Баррет
Оператор: Тим Сёрстедт
Композитор: Рольф Кент
В ролях: Зак Эфрон, Лесли Манн, Томас Леннон, Мэттью Перри, Тайлер Стилман, Эллисон Миллер, Стерлинг Найт, Мишель Трахтенберг, Адам Грегори, Хантер Пэрриш
Бюджет: $20 000 000
Сборы в США: $64 167 069
Сборы в мире: + $72 100 407 = $136 267 476
Мировая премьера: 11 марта 2009
Релиз на DVD: 11 августа 2009, «Юниверсал Пикчерс Рус»
Описание: Вы хотели бы начать жизнь сначала? Отец двоих детей Майк О`Доннелл хотел бы. И вот внезапно ему выпадает волшебный шанс вернуться в родную школу Хэйден Хай. Теперь Майк — звезда баскетбольной команды, мечта девчонок и одноклассник собственных отпрысков, превратившийся из нерадивого папаши в отличного друга.

Изображение User Rating: 7.249 (48 445)
Изображение User Rating: 6.30 (75 779)
MPAA: PG-13 - Детям до 13 лет просмотр не желателен
Раздача группы: Изображение
Качество: BDRip, 1080p
Формат: Matroska
Видео: AVC; 1920x800 (2.40:1); 8574 Кбит/сек; 23,976 кадр/сек; 0.233 bit/pixel
Аудио №1: Russian; AC3; 448 Kbps; CBR; 6 ch
Аудио №2: English; AC3; 640 Kbps; CBR; 6 ch

Субтитры №1: Russian
Субтитры №2: English

mediainfo
Общее
Уникальный идентификатор : 192464376744830832025617360955095858841 (0x90CB4A676339DCBBA452C2C3A9733E99)
Полное имя : D:\TORRENT\Pape.snova.17.2009.x264.BDRip.1080p.mkv
Формат : Matroska
Размер файла : 6,88 Гбайт
Продолжительность : 1 ч. 41 м.
Общий поток : 9662 Кбит/сек
Дата кодирования : UTC 2009-08-12 19:21:24
Программа кодирования : mkvmerge v2.9.5 ('Tu es le seul') built on Jun 7 2009 11:07:07
Библиотека кодирования : libebml v0.7.7 + libmatroska v0.8.1

Видео
Идентификатор : 1
Формат : AVC
Формат/Информация : Advanced Video Codec
Профиль формата : High@L4.1
Параметр CABAC формата : Да
Параметр ReFrames формата : 5 кадров
Идентификатор кодека : V_MPEG4/ISO/AVC
Продолжительность : 1 ч. 41 м.
Битрейт : 8574 Кбит/сек
Ширина : 1920 пикс.
Высота : 800 пикс.
Соотношение сторон : 2,40:1
Частота кадров : 23,976 кадр/сек
Цветовое пространство : YUV
Подвыборка цветности : 4:2:0
Битовая глубина : 8 бит
Тип развёртки : Прогрессивная
Бит/(Пиксели*Кадры) : 0.233
Размер потока : 5,97 Гбайт (87%)
Библиотека кодирования : x264 core 67 r1173 f6d3166
Настройки программы : cabac=1 / ref=5 / deblock=1:0:0 / analyse=0x3:0x113 / me=umh / subme=7 / psy_rd=1.0:0.0 / mixed_ref=1 / me_range=16 / chroma_me=1 / trellis=1 / 8x8dct=1 / cqm=0 / deadzone=21,11 / chroma_qp_offset=-2 / threads=6 / nr=0 / decimate=1 / mbaff=0 / bframes=3 / b_pyramid=1 / b_adapt=1 / b_bias=0 / direct=3 / wpredb=1 / keyint=250 / keyint_min=25 / scenecut=40 / rc=2pass / bitrate=8574 / ratetol=1.0 / qcomp=0.60 / qpmin=10 / qpmax=51 / qpstep=4 / cplxblur=20.0 / qblur=0.5 / ip_ratio=1.40 / pb_ratio=1.30 / aq=1:1.00
Язык : English

Аудио #1
Идентификатор : 2
Формат : AC-3
Формат/Информация : Audio Coding 3
Расширение режима : CM (complete main)
Идентификатор кодека : A_AC3
Продолжительность : 1 ч. 41 м.
Вид битрейта : Постоянный
Битрейт : 448 Кбит/сек
Каналы : 6 каналов
Расположение каналов : Front: L C R, Side: L R, LFE
Частота : 48,0 КГц
Битовая глубина : 16 бит
Метод сжатия : С потерями
Размер потока : 327 Мбайт (5%)
Заголовок : Russian @ DD 5.1 @ 448 kbps
Язык : Russian

Аудио #2
Идентификатор : 3
Формат : AC-3
Формат/Информация : Audio Coding 3
Расширение режима : CM (complete main)
Идентификатор кодека : A_AC3
Продолжительность : 1 ч. 41 м.
Вид битрейта : Постоянный
Битрейт : 640 Кбит/сек
Каналы : 6 каналов
Расположение каналов : Front: L C R, Side: L R, LFE
Частота : 48,0 КГц
Битовая глубина : 16 бит
Метод сжатия : С потерями
Размер потока : 467 Мбайт (7%)
Заголовок : English @ DD 5.1 @ 640 kbps
Язык : English

Текст #1
Идентификатор : 4
Формат : UTF-8
Идентификатор кодека : S_TEXT/UTF8
Идентификатор кодека/Информация : UTF-8 Plain Text
Заголовок : Full
Язык : Russian

Текст #2
Идентификатор : 5
Формат : UTF-8
Идентификатор кодека : S_TEXT/UTF8
Идентификатор кодека/Информация : UTF-8 Plain Text
Заголовок : Full
Язык : English

Меню #1
00:00:00.000 : en:00:00:00.000
00:06:42.986 : en:00:06:42.986
00:10:06.773 : en:00:10:06.773
00:16:30.072 : en:00:16:30.072
00:18:24.228 : en:00:18:24.228
00:22:41.068 : en:00:22:41.068
00:25:43.834 : en:00:25:43.834
00:29:37.693 : en:00:29:37.693
00:33:28.215 : en:00:33:28.215
00:36:00.992 : en:00:36:00.992
00:40:16.623 : en:00:40:16.623
00:44:41.345 : en:00:44:41.345
00:49:22.084 : en:00:49:22.084
00:53:09.103 : en:00:53:09.103
00:58:35.011 : en:00:58:35.011
01:03:51.119 : en:01:03:51.119
01:07:36.803 : en:01:07:36.803
01:10:27.473 : en:01:10:27.473
01:16:16.697 : en:01:16:16.697
01:20:28.657 : en:01:20:28.657
01:26:47.953 : en:01:26:47.953
01:30:55.825 : en:01:30:55.825
01:34:44.804 : en:01:34:44.804
01:35:28.389 : en:01:35:28.389

Меню #2
00:00:00.000 : en:00:00:00.000
00:06:42.986 : en:00:06:42.986
00:10:06.773 : en:00:10:06.773
00:16:30.072 : en:00:16:30.072
00:18:24.228 : en:00:18:24.228
00:22:41.068 : en:00:22:41.068
00:25:43.834 : en:00:25:43.834
00:29:37.693 : en:00:29:37.693
00:33:28.215 : en:00:33:28.215
00:36:00.992 : en:00:36:00.992
00:40:16.623 : en:00:40:16.623
00:44:41.345 : en:00:44:41.345
00:49:22.084 : en:00:49:22.084
00:53:09.103 : en:00:53:09.103
00:58:35.011 : en:00:58:35.011
01:03:51.119 : en:01:03:51.119
01:07:36.803 : en:01:07:36.803
01:10:27.473 : en:01:10:27.473
01:16:16.697 : en:01:16:16.697
01:20:28.657 : en:01:20:28.657
01:26:47.953 : en:01:26:47.953
01:30:55.825 : en:01:30:55.825
01:34:44.804 : en:01:34:44.804
01:35:28.389 : en:01:35:28.389


Свернуть
Скриншоты

Изображение
Изображение
Изображение
Свернуть


Тема поднималась пользователем volkov2009 2013-01-24 22:53.
Не в сети
Профиль  
Начать новую темуОтветить на тему  [ 1 сообщение ] 
Вы не можете начинать темы
Вы не можете отвечать на сообщения
Вы не можете редактировать свои сообщения
Вы не можете удалять свои сообщения