Правила форума

  • В этом разделе создание новых тем Запрещено.
  • Для создания новых тем пользуйтесь Корневым разделом DVD и HD фильмы.
Начать новую темуОтветить на тему  [ Сообщений: 2 ] 
Торрент файл
Размер: 6.91 GB • Зарегистрирован: 4 года 2 месяца • Статус: Проверено
Скачан: 177 раз • Желающих скачать: 0 • Поблагодарили: 33 раза
 Раздают: 0  |  0 KB/s  ]   Качают: 0  |  0 KB/s  ] 
 Полного источника не было 2 года 1 месяц 
Сообщения
 Добавлено: 2012-09-28 06:10
DVD Release Group
Аватара пользователя
Стаж: 7 лет 1 месяц
Сообщений: 3552
Спасибок: 247166
Лайков: 1018
Параллельные миры

Upside Down

«Упасть, чтобы взлететь»


Изображение


Год выпуска: 2012
Страна: Канада, Франция / Jouror Productions, Onyx Films, Studio 37, Transfilm
Жанр: Фэнтези, мелодрама
Продолжительность: 01:47:50
Перевод: Профессиональный (полное дублирование)
Субтитры: Нет
Режиссер: Хуан Диего Соланас
В ролях: Кирстен Данст, Джим Стёрджесс, Нил Напье, Стелла Маив, Джэйн Хейтмейер, Ларри Дэй, Джон МакЛарен, Дон Джордан, Холли О’Брайэн, Агнешка Вроновска
Описание: Однажды, несколько тысяч лет тому назад, две планеты притянулись друг к другу. Там правили мир и гармония. Но стоило верхнему миру обрести уверенность и власть, как между планетами началось противостояние. Казалось, ничто не может примирить параллельные миры. Она — дочь президента верхнего мира. Эта хрупкая девушка с сильным характером и не подозревала, что душа ее способна любить. Он — ее половина. Их встреча была предопределена свыше, их судьбы переплелись воедино. Сможет ли Он, вопреки законам физики своего мира, быть вместе со своей любимой?
Кинопоиск: 6.1 (7961)
IMDb: 5.8 (404)
Дополнительно: Сохранены оригинальные чаптеры как на Blu-Ray.
Sample:
http://multi-up.com/766754
Качество: BDRip 720p
Формат: MKV
Видео кодек: H.264
Аудио кодек: AC3
Видео: 1280x570 23.98fps 8352kbps
Аудио: 48kHz 6ch 640kbps
"MediaInfo"
Формат : Matroska
Версия формата : Version 2
Размер файла : 6,91 Гбайт
Продолжительность : 1 ч. 47 м.
Общий поток : 9175 Кбит/сек
Название фильма : Параллельные миры
Дата кодирования : UTC 2012-09-28 00:02:24
Программа кодирования : mkvmerge v4.9.1 ('Ich will') сборка от Jul 11 2011 23:53:15
Библиотека кодирования : libebml v1.2.1 + libmatroska v1.1.1

Видео
Идентификатор : 1
Формат : AVC
Формат/Информация : Advanced Video Codec
Профиль формата : High@L4.1
Параметр CABAC формата : Да
Параметр ReFrames формата : 11 кадров
Идентификатор кодека : V_MPEG4/ISO/AVC
Продолжительность : 1 ч. 47 м.
Битрейт : 8352 Кбит/сек
Ширина : 1280 пикселей
Высота : 570 пикселей
Соотношение сторон : 2,25:1
Частота кадров : 23,976 кадра/сек
Цветовое пространство : YUV
Субдискретизация насыщенности : 4:2:0
Битовая глубина : 8 бит
Тип развёртки : Прогрессивная
Бит/(Пиксели*Кадры) : 0.477
Размер потока : 6,29 Гбайт (91%)
Библиотека кодирования : x264 core 125 r2200 999b753
Настройки программы : cabac=1 / ref=11 / deblock=1:-3:-3 / analyse=0x3:0x113 / me=umh / subme=11 / psy=1 / psy_rd=1.20:0.00 / mixed_ref=1 / me_range=32 / chroma_me=1 / trellis=2 / 8x8dct=1 / cqm=0 / deadzone=21,11 / fast_pskip=0 / chroma_qp_offset=-2 / threads=12 / lookahead_threads=2 / sliced_threads=0 / nr=0 / decimate=1 / interlaced=0 / bluray_compat=0 / constrained_intra=0 / bframes=7 / b_pyramid=2 / b_adapt=2 / b_bias=0 / direct=3 / weightb=1 / open_gop=0 / weightp=2 / keyint=250 / keyint_min=23 / scenecut=40 / intra_refresh=0 / rc_lookahead=40 / rc=crf / mbtree=1 / crf=17.0 / qcomp=0.60 / qpmin=10 / qpmax=69 / qpstep=4 / vbv_maxrate=50000 / vbv_bufsize=62500 / crf_max=0.0 / nal_hrd=none / ip_ratio=1.40 / aq=1:1.00
Язык : English
Коэффициенты матрицы : BT.709-5, BT.1361, IEC 61966-2-4 709, SMPTE RP177

Аудио
Идентификатор : 2
Формат : AC-3
Формат/Информация : Audio Coding 3
Расширение режима : CM (complete main)
Идентификатор кодека : A_AC3
Продолжительность : 1 ч. 47 м.
Вид битрейта : Постоянный
Битрейт : 640 Кбит/сек
Каналы : 6 каналов
Расположение каналов : Front: L C R, Side: L R, LFE
Частота : 48,0 КГц
Битовая глубина : 16 бит
Метод сжатия : С потерями
Размер потока : 494 Мбайт (7%)

Меню
00:00:00.000 : en:00:00:00.000
00:07:45.756 : en:00:07:45.756
00:18:40.619 : en:00:18:40.619
00:29:54.375 : en:00:29:54.375
00:39:50.721 : en:00:39:50.721
00:50:09.089 : en:00:50:09.089
00:59:08.753 : en:00:59:08.753
01:07:43.309 : en:01:07:43.309
01:17:00.157 : en:01:17:00.157
01:27:02.050 : en:01:27:02.050
01:38:44.752 : en:01:38:44.752
Свернуть

"Скриншоты"
Изображение
Изображение
Изображение
Изображение
Свернуть

Раздача группы:
Изображение
Не в сети
Профиль  
 Добавлено: 2012-10-01 08:22 (спустя 3 дня)
Аватара пользователя
Стаж: 7 лет 8 месяцев
Сообщений: 36
фильм очень понравился, девчонкам картина будет интересна, красивая графика, интересный сюжет и главный герой не плох, вот только немного смазано окончание фильма. Смотрите все, время зря точно не потеряете, такие фильмы надо еще поискать
Не в сети
Профиль  
Начать новую темуОтветить на тему  [ Сообщений: 2 ] 
Вы не можете начинать темы
Вы не можете отвечать на сообщения
Вы не можете редактировать свои сообщения
Вы не можете удалять свои сообщения