Правила форума

  • В этом разделе создание новых тем Запрещено.
  • Для создания новых тем пользуйтесь Корневым разделом DVD и HD фильмы.
Начать новую темуОтветить на тему  [ Сообщений: 3 ] 
Торрент файл
Размер: 8.38 GB • Зарегистрирован: 4 года 2 месяца • Статус: Проверено
Скачан: 469 раз • Желающих скачать: 0 • Поблагодарили: 59 раз
 Раздают: 0  |  0 KB/s  ]   Качают: 0  |  0 KB/s  ] 
 Полного источника не было 3 часа 
Сообщения
 Добавлено: 2012-09-28 19:27
Модератор
Аватара пользователя
Стаж: 8 лет 7 месяцев
Сообщений: 4965
Спасибок: 110254
Лайков: 18
Изображение

Параллельные миры / Upside Down


Год выпуска: 2012
Страна: Канада, Франция, Jouror Productions, Onyx Films, Studio 37, Transfilm
Слоган: «Упасть, чтобы взлететь»

Жанр: фэнтези, мелодрама
Продолжительность: 01:47:50
Перевод: Профессиональный (полное дублирование)
Субтитры: Русские
Режиссер: Хуан Диего Соланас
Сценарий: Сантьяго Амигорена, Харрис Демель, Хуан Диего Соланас
Продюсер: Харрис Демель, Алексис Вонарб, Клод Леже
Оператор: Пьер Гилл
Композитор: Бенуа Шаре

В ролях: Кирстен Данст, Джим Стёрджесс, Стелла Маив, Нил Напье, Джэйн Хейтмейер, Холли О’Брайэн, Ларри Дэй, Агнешка Вроновска, Джон МакЛарен, Дон Джордан
Сборы в России: $5 927 738

Мировая премьера: 22 августа 2012
Релиз на DVD: 27 сентября 2012, «Флагман-Трейд»
Релиз на Blu-ray: 27 сентября 2012, «Флагман-Трейд»
Описание: Однажды, несколько тысяч лет тому назад, две планеты притянулись друг к другу. Там правили мир и гармония. Но стоило верхнему миру обрести уверенность и власть, как между планетами началось противостояние. Казалось, ничто не может примирить параллельные миры.
Изображение 5.8/10 (470 users) Изображение 6.189 (8 184)
"NFO"
Format : Matroska
Format version : Version 2
File size : 8.38 GiB
Duration : 1h 47mn
Overall bit rate : 11.1 Mbps
Movie name : CMEGroup.BLUEBIRD
Encoded date : UTC 2012-09-28 08:31:25
Writing application : mkvmerge v5.8.0 ('No Sleep / Pillow') built on Sep 2 2012 15:37:04
Writing library : libebml v1.2.3 + libmatroska v1.3.0

Video
ID : 1
Format : AVC
Format/Info : Advanced Video Codec
Format profile : High@L4.1
Format settings, CABAC : Yes
Format settings, ReFrames : 4 frames
Codec ID : V_MPEG4/ISO/AVC
Duration : 1h 47mn
Bit rate : 10.5 Mbps
Width : 1 920 pixels
Height : 856 pixels
Display aspect ratio : 2.25:1
Frame rate : 23.976 fps
Color space : YUV
Chroma subsampling : 4:2:0
Bit depth : 8 bits
Scan type : Progressive
Bits/(Pixel*Frame) : 0.266
Stream size : 7.73 GiB (92%)
Writing library : x264 core 125 r2208 d9d2288
Encoding settings : cabac=1 / ref=4 / deblock=1:-3:-3 / analyse=0x3:0x113 / me=umh / subme=10 / psy=1 / psy_rd=1.00:0.00 / mixed_ref=1 / me_range=24 / chroma_me=1 / trellis=2 / 8x8dct=1 / cqm=0 / deadzone=21,11 / fast_pskip=1 / chroma_qp_offset=-2 / threads=6 / lookahead_threads=1 / sliced_threads=0 / nr=0 / decimate=1 / interlaced=0 / bluray_compat=0 / constrained_intra=0 / bframes=6 / b_pyramid=2 / b_adapt=2 / b_bias=0 / direct=2 / weightb=0 / open_gop=0 / weightp=2 / keyint=240 / keyint_min=23 / scenecut=40 / intra_refresh=0 / rc_lookahead=40 / rc=2pass / mbtree=1 / bitrate=10500 / ratetol=1.0 / qcomp=0.60 / qpmin=0 / qpmax=69 / qpstep=4 / cplxblur=20.0 / qblur=0.5 / ip_ratio=1.40 / aq=1:1.00
Language : English
Default : Yes
Forced : No

Audio
ID : 2
Format : AC-3
Format/Info : Audio Coding 3
Mode extension : CM (complete main)
Format settings, Endianness : Big
Codec ID : A_AC3
Duration : 1h 47mn
Bit rate mode : Constant
Bit rate : 640 Kbps
Channel(s) : 6 channels
Channel positions : Front: L C R, Side: L R, LFE
Sampling rate : 48.0 KHz
Bit depth : 16 bits
Compression mode : Lossy
Stream size : 494 MiB (6%)
Default : Yes
Forced : No

Text
ID : 3
Format : UTF-8
Codec ID : S_TEXT/UTF8
Codec ID/Info : UTF-8 Plain Text
Language : Russian
Default : Yes
Forced : No

Menu
00:00:00.000 : en:00:00:00.000
00:07:45.756 : en:00:07:45.756
00:18:40.619 : en:00:18:40.619
00:29:54.375 : en:00:29:54.375
00:39:50.721 : en:00:39:50.721
00:50:09.089 : en:00:50:09.089
00:59:08.753 : en:00:59:08.753
01:07:43.309 : en:01:07:43.309
01:17:00.157 : en:01:17:00.157
01:27:02.050 : en:01:27:02.050
01:38:44.752 : en:01:38:44.752
Свернуть


Релиз от: Изображение
Релиз группа: Изображение
Качество: BDRip 1080p
Формат: MKV

Видео: MPEG-4 AVC, 10.5 Mбит/с, 1920x856, 23.976 кадр/с
Аудио: AC3, 6 ch, 640 Кбит/сек

"Скриншоты"

Изображение

Изображение

Изображение

Свернуть
_________________
Изображение Изображение Изображение
Билайн / АДС добавляйте ретрекер, чтобы качать на скорости 100 Мбит/с
Cкрытый текст
Изображение
Свернуть
Не в сети
Профиль  
 Добавлено: 2012-09-29 09:13 (спустя 13 часов)
Аватара пользователя
Стаж: 8 лет 3 месяца
Возраст: 33
Сообщений: 319
Спасибок: 602
Лайков: 34
NFSMW, :uch_tiv:
Не в сети
Профиль  
 Добавлено: 2012-10-25 19:19 (спустя 26 дней)
Аватара пользователя
Стаж: 4 года 7 месяцев
Сообщений: 138
ребята
дайте скорости
плиз
:(
Не в сети
Профиль  
Начать новую темуОтветить на тему  [ Сообщений: 3 ] 
Вы не можете начинать темы
Вы не можете отвечать на сообщения
Вы не можете редактировать свои сообщения
Вы не можете удалять свои сообщения