Правила форума

  • В этом разделе создание новых тем Запрещено.
  • Для создания новых тем пользуйтесь Корневым разделом DVD и HD фильмы.
Начать новую темуОтветить на тему  [ Сообщений: 3 ] 
Торрент файл
Размер: 7.95 GB • Зарегистрирован: 4 года 9 месяцев • Статус: Проверено
Скачан: 121 раз • Желающих скачать: 0 • Поблагодарили: 21 раз
 Раздают: 0  |  0 KB/s  ]   Качают: 0  |  0 KB/s  ] 
 Полного источника не было 3 года 2 месяца 
Сообщения
 Добавлено: 2012-02-13 14:12
Руководитель релиз-группы
Аватара пользователя
Стаж: 8 лет 6 месяцев
Возраст: 25
Сообщений: 7578
Спасибок: 51911
Лайков: 14
Изображение

Паранормальное явление 3 / Paranormal Activity 3


Год выпуска: 2011
Страна: США
Слоган: «Узнайте, как всё началось»

Жанр: ужасы, триллер
Продолжительность: 01:33:59
Перевод: Профессиональный (полное дублирование) [лицензия]

Режиссер: Генри Джуст, Эриель Шульман

В ролях: Спрэг Грэйден, Кристофер Николас Смит, Дастин Ингрэм, Лоурен Биттнер, Хлоя Ксенджери, Джесика Браун, Мария Олсен, Брайан Боланд, Джоанна Е. Брэдди, Бэйли Мишель Браун, Таккер Браун, Молли Эфраим
Описание: Действие фильма разворачивается в 1988 году. В доме, где живет семья с двумя детьми, начинают происходить странные вещи. Кристи, одна из девочек, начинает общаться с невидимым другом Тоби, который поселился в их доме.

Качество: BDRip 1080p / сэмпл
Формат: MKV
Видео: MPEG4 Video (H264) 1920x1080 23.98fps 11100 kb/s
Аудио: AC3 48000Hz 6ch 640 Kbps
Аудио: DTS 48000Hz 6ch 1510 Kbps
Субтитры: Russian, English, English (SDH)

"Скриншоты"

Изображение
Изображение
Изображение
Свернуть
"MediaInfo"
General
Unique ID                        : 223565958546718765534182173989392269927 (0xA8313CC6F8E79F0DA4D4AC4E81C2C267)
Complete name                    : E:\Ганг\Paranormal.Activity.3.2011.Theatrical.Cut.D.BDRip.1080p.mkv
Format                           : Matroska
File size                        : 7.95 GiB
Duration                         : 1h 24mn
Overall bit rate                 : 13.5 Mbps
Encoded date                     : UTC 2012-02-13 11:14:04
Writing application              : mkvmerge v5.2.1 ('A Far Off Place') built on Jan  2 2012 23:21:10
Writing library                  : libebml v1.2.3 + libmatroska v1.3.0

Video
ID                               : 1
Format                           : AVC
Format/Info                      : Advanced Video Codec
Format profile                   : High@L4.1
Format settings, CABAC           : Yes
Format settings, ReFrames        : 4 frames
Codec ID                         : V_MPEG4/ISO/AVC
Duration                         : 1h 24mn
Bit rate                         : 11.1 Mbps
Width                            : 1 920 pixels
Height                           : 1 080 pixels
Display aspect ratio             : 16:9
Frame rate                       : 23.976 fps
Color space                      : YUV
Chroma subsampling               : 4:2:0
Bit depth                        : 8 bits
Scan type                        : Progressive
Bits/(Pixel*Frame)               : 0.224
Stream size                      : 6.53 GiB (82%)
Writing library                  : x264 core 116 r2057 0ba8a9c
Encoding settings                : cabac=1 / ref=3 / deblock=1:-3:-3 / analyse=0x3:0x133 / me=umh / subme=10 / psy=1 / psy_rd=1.00:0.00 / mixed_ref=1 / me_range=32 / chroma_me=1 / trellis=2 / 8x8dct=1 / cqm=0 / deadzone=21,11 / fast_pskip=0 / chroma_qp_offset=-2 / threads=18 / sliced_threads=0 / nr=0 / decimate=0 / interlaced=0 / bluray_compat=0 / constrained_intra=0 / bframes=7 / b_pyramid=2 / b_adapt=2 / b_bias=0 / direct=3 / weightb=1 / open_gop=0 / weightp=2 / keyint=250 / keyint_min=23 / scenecut=40 / intra_refresh=0 / rc_lookahead=40 / rc=crf / mbtree=0 / crf=18.0 / qcomp=0.65 / qpmin=0 / qpmax=51 / qpstep=4 / vbv_maxrate=50000 / vbv_bufsize=50000 / crf_max=0.0 / nal_hrd=none / ip_ratio=1.25 / pb_ratio=1.25 / aq=1:0.65
Language                         : English

Audio #1
ID                               : 2
Format                           : AC-3
Format/Info                      : Audio Coding 3
Mode extension                   : CM (complete main)
Codec ID                         : A_AC3
Duration                         : 1h 24mn
Bit rate mode                    : Constant
Bit rate                         : 640 Kbps
Channel(s)                       : 6 channels
Channel positions                : Front: L C R, Side: L R, LFE
Sampling rate                    : 48.0 KHz
Bit depth                        : 16 bits
Compression mode                 : Lossy
Stream size                      : 385 MiB (5%)
Title                            : BD CEE
Language                         : Russian

Audio #2
ID                               : 3
Format                           : DTS
Format/Info                      : Digital Theater Systems
Codec ID                         : A_DTS
Duration                         : 1h 24mn
Bit rate mode                    : Constant
Bit rate                         : 1 510 Kbps
Channel(s)                       : 6 channels
Channel positions                : Front: L C R, Side: L R, LFE
Sampling rate                    : 48.0 KHz
Bit depth                        : 24 bits
Compression mode                 : Lossy
Stream size                      : 909 MiB (11%)
Language                         : English

Text #1
ID                               : 4
Format                           : UTF-8
Codec ID                         : S_TEXT/UTF8
Codec ID/Info                    : UTF-8 Plain Text
Language                         : Russian

Text #2
ID                               : 5
Format                           : UTF-8
Codec ID                         : S_TEXT/UTF8
Codec ID/Info                    : UTF-8 Plain Text
Language                         : English

Text #3
ID                               : 6
Format                           : UTF-8
Codec ID                         : S_TEXT/UTF8
Codec ID/Info                    : UTF-8 Plain Text
Title                            : SDH
Language                         : English

Menu
00:00:00.000                     : en:00:00:00.000
00:04:25.390                     : en:00:04:25.390
00:08:56.786                     : en:00:08:56.786
00:12:53.564                     : en:00:12:53.564
00:16:41.000                     : en:00:16:41.000
00:23:11.390                     : en:00:23:11.390
00:29:45.200                     : en:00:29:45.200
00:33:52.030                     : en:00:33:52.030
00:39:53.391                     : en:00:39:53.391
00:47:54.872                     : en:00:47:54.872
00:59:03.540                     : en:00:59:03.540
01:02:48.765                     : en:01:02:48.765
01:06:39.287                     : en:01:06:39.287
01:18:45.721                     : en:01:18:45.721
Свернуть
Не в сети
Профиль  
 Добавлено: 2012-02-13 14:24 (спустя 11 минут)
Аватара пользователя
Стаж: 8 лет 6 месяцев
Сообщений: 105
Спасибок: 1
Лайков: 4
КАК качество??
стоит качать?
Не в сети
Профиль  
 Добавлено: 2012-02-13 14:45 (спустя 20 минут)
Модератор
Аватара пользователя
Стаж: 6 лет 10 месяцев
Возраст: 33
Сообщений: 5908
Спасибок: 61259
Лайков: 3540

Kislotzey:

КАК качество??
стоит качать?
Перевод: Профессиональный (полное дублирование) [лицензия]
_________________
ИзображениеИзображение Изображение
Изображение
Не в сети
Профиль  
Начать новую темуОтветить на тему  [ Сообщений: 3 ] 
Вы не можете начинать темы
Вы не можете отвечать на сообщения
Вы не можете редактировать свои сообщения
Вы не можете удалять свои сообщения