Правила форума

  • В этом разделе создание новых тем Запрещено.
  • Для создания новых тем пользуйтесь Корневым разделом DVD и HD фильмы.
Начать новую темуОтветить на тему  [ Сообщений: 4 ] 
Торрент файл
Размер: 8.19 GB • Зарегистрирован: 3 года • Статус: Проверено
Скачан: 151 раз • Желающих скачать: 0 • Поблагодарили: 68 раз
 Раздают: 1  |  0 KB/s  ]   Качают: 0  |  0 KB/s  ] 
Сообщения
 Добавлено: 2013-11-22 13:53
Аватара пользователя
Стаж: 9 лет 1 месяц
Сообщений: 8095
Спасибок: 122340
Лайков: 1196
Паранойя / Paranoia

«В войне двух королей, даже пешка может победить»

Изображение


Год выпуска: 2013
Страна: Изображение США Изображение Франция
Жанр: триллер, драма
Продолжительность: 01:46:06
Перевод: Профессиональный (полное дублирование) [Лицензия]


Режиссер: Роберт Лукетич
Сценарий: Джейсон Дин Холл, Бэрри Леви, Джозеф Финдер
Продюсер: Уильям Д. Джонсон, Скотт Ламберт, Александра Милчэн
Оператор: Дэвид Тэттерсолл
Композитор: Джанки Экс-Эл

В ролях: Лайам Хемсворт, Гари Олдман, Эмбер Хёрд, Харрисон Форд, Лукас Тилл, Эмбет Дэвидц, Джулиан МакМэхон, Джош Холлоуэй, Ричард Дрейфусс, Анджела Сарафян

Описание: Адам Кэссиди — типичный «белый воротничок», пытающийся преуспеть на должности молодого специалиста в крупной телекоммуникационной корпорации. После одной весьма дорогостоящей ошибки он сталкивается лицом к лицу с безжалостным президентом компании, который соглашается не увольнять провинившегося при одном условии: Адам должен шпионить за старым наставником своего босса…

Изображение Изображение

Раздача группы: Изображение

Качество: BDRip (1080p)
Формат: Matroska
Видео: MPEG-4 AVC, 9176 Кбит/с, 1920x800
Аудио №1: Русский (AC3, 48,0 КГц, 6 ch, 384 Кбит/c)
Аудио №2: Английский (DTS, 48,0 КГц, 6 ch, 1510 Кбит/c)

MediaInfo
Общее
Уникальный идентификатор : 199992209000987017461322224975170912777 (0x96751930798593779D56122A91864209)
Полное имя : C:\Фильмы\Paranoia.2013.BluRay.1080p.[R.G.Daredevil].mkv
Формат : Matroska
Версия формата : Version 2
Размер файла : 8,19 Гбайт
Продолжительность : 1 ч. 46 м.
Общий поток : 11,0 Мбит/сек
Дата кодирования : UTC 2013-11-22 04:34:04
Программа кодирования : mkvmerge v6.3.0 ('You can't stop me!') built on Jun 28 2013 20:09:41
Библиотека кодирования : libebml v1.3.0 + libmatroska v1.4.0

Видео
Идентификатор : 1
Формат : AVC
Формат/Информация : Advanced Video Codec
Профиль формата : High@L4.1
Параметр CABAC формата : Да
Параметр ReFrames формата : 5 кадров
Идентификатор кодека : V_MPEG4/ISO/AVC
Продолжительность : 1 ч. 46 м.
Битрейт : 9176 Кбит/сек
Ширина : 1920 пикселей
Высота : 800 пикселей
Соотношение сторон : 2,40:1
Режим частоты кадров : Постоянный
Частота кадров : 23,976 кадра/сек
Цветовое пространство : YUV
Субдискретизация насыщенности : 4:2:0
Битовая глубина : 8 бит
Тип развёртки : Прогрессивная
Бит/(Пиксели*Кадры) : 0.249
Размер потока : 6,62 Гбайт (81%)
Библиотека кодирования : x264 core 138 r2356 a1d3d17
Настройки программы : cabac=1 / ref=5 / deblock=1:-3:-3 / analyse=0x3:0x113 / me=umh / subme=10 / psy=1 / psy_rd=1.00:0.05 / mixed_ref=1 / me_range=32 / chroma_me=1 / trellis=2 / 8x8dct=1 / cqm=0 / deadzone=21,11 / fast_pskip=0 / chroma_qp_offset=-2 / threads=18 / lookahead_threads=1 / sliced_threads=0 / nr=0 / decimate=1 / interlaced=0 / bluray_compat=0 / constrained_intra=0 / bframes=4 / b_pyramid=2 / b_adapt=2 / b_bias=0 / direct=3 / weightb=1 / open_gop=0 / weightp=2 / keyint=250 / keyint_min=23 / scenecut=40 / intra_refresh=0 / rc=2pass / mbtree=0 / bitrate=9176 / ratetol=1.0 / qcomp=0.70 / qpmin=0 / qpmax=69 / qpstep=4 / cplxblur=20.0 / qblur=0.5 / ip_ratio=1.40 / pb_ratio=1.30 / aq=2:1.00
Язык : English
Default : Да
Forced : Нет

Аудио #1
Идентификатор : 2
Формат : AC-3
Формат/Информация : Audio Coding 3
Расширение режима : CM (complete main)
Параметр Endianness формата : Big
Идентификатор кодека : A_AC3
Продолжительность : 1 ч. 46 м.
Вид битрейта : Постоянный
Битрейт : 384 Кбит/сек
Каналы : 6 каналов
Расположение каналов : Front: L C R, Side: L R, LFE
Частота : 48,0 КГц
Битовая глубина : 16 бит
Метод сжатия : С потерями
Размер потока : 291 Мбайт (3%)
Язык : Russian
Default : Да
Forced : Нет

Аудио #2
Идентификатор : 3
Формат : DTS
Формат/Информация : Digital Theater Systems
Режим : 16
Параметр Endianness формата : Big
Идентификатор кодека : A_DTS
Продолжительность : 1 ч. 46 м.
Вид битрейта : Постоянный
Битрейт : 1509 Кбит/сек
Каналы : 6 каналов
Расположение каналов : Front: L C R, Side: L R, LFE
Частота : 48,0 КГц
Битовая глубина : 24 бит
Метод сжатия : С потерями
Размер потока : 1,12 Гбайт (14%)
Язык : English
Default : Нет
Forced : Нет
Свернуть
Знаете ли вы, что...
Фильм снят по мотивам романа Джозефа Финдера «Паранойя» (Paranoia, 2004).
Свернуть
Скриншоты
Изображение
Изображение
Изображение
Изображение
Свернуть


Последний раз редактировалось krazz 2013-11-22 18:37, всего редактировалось 1 раз.
 helek нравится это.
Не в сети
Профиль  
 Добавлено: 2013-11-22 17:55 (спустя 4 часа)
Аватара пользователя
Стаж: 4 года 10 месяцев
Возраст: 29
Сообщений: 86
Лайков: 1
как фильм???
Не в сети
Профиль  
 Добавлено: 2013-11-27 19:19 (спустя 5 дней)
Аватара пользователя
Стаж: 7 лет
Возраст: 30
Сообщений: 507
Спасибок: 1931
Абсолютно лишенная нерва картина от режиссера «Блондинки в законе».
_________________
Изображение
Не в сети
Профиль  
 Добавлено: 2013-12-01 10:08 (спустя 3 дня)
Стаж: 3 года 10 месяцев
Сообщений: 187
Лайков: 61
Фильм ничего так, интересная задумка, напоминающая реальную сложивщуюся ситуацию в данной мобильной сфере, в которой актуальна тема гибких экранов в мобильных телефонах, смартфонах.
Не в сети
Профиль  
Начать новую темуОтветить на тему  [ Сообщений: 4 ] 
Вы не можете начинать темы
Вы не можете отвечать на сообщения
Вы не можете редактировать свои сообщения
Вы не можете удалять свои сообщения