Правила форума

  • В этом разделе создание новых тем Запрещено.
  • Для создания новых тем пользуйтесь Корневым разделом DVD и HD фильмы.
Начать новую темуОтветить на тему  [ Сообщений: 2 ] 
Торрент файл
Размер: 4.66 GB • Зарегистрирован: 4 года 4 месяца • Статус: Проверено
Скачан: 43 раза • Желающих скачать: 0 • Поблагодарили: 3 раза
 Раздают: 0  |  0 KB/s  ]   Качают: 0  |  0 KB/s  ] 
 Полного источника не было 3 года 2 месяца 
Сообщения
 Добавлено: 2012-07-26 17:02
Книголюб
Аватара пользователя
Стаж: 7 лет 2 месяца
Сообщений: 2823
Спасибок: 48830
Лайков: 73
Парень из Филадельфии
The Philly Kid

Изображение


Год выпуска: 2012
Страна: США
Слоган: «His only way out is getting back in»
Жанр: боевик, драма
Продолжительность: 01:33:27
Перевод: Профессиональный (многоголосый закадровый)

Режиссёр: Джейсон Коннери
В ролях: Уэс Чэтэм, Девон Сава, Сара Батлер, Нил МакДонаф, Лаки Джонсон, Крис Браунинг, Адам Мервис, Бернард Хок, Ава Богл, Эрик Скотт Вудс
Описание: После 10-летнего тюремного заключения освобожден под честное слово борец-бывший чемпион Национальной Атлетической Ассоциации. Теперь чтобы спасти жизнь другу он должен сделать невозможное для себя, проиграть в серии борцовских поединков в клетке.
Рейтинг MPAA: Рейтинг R (Подростки до 17 лет допускаются на фильм только в сопровождении одного из родителей)
Мировая премьера: 11 мая 2012
Бюджет: $5 000 000
Изображение 6.182 216

Качество: HQRip 720p.
Формат: MKV
Видео кодек: H.264
Аудио кодек: AC3 (Dolby Digital)
Видео: 1280x720, 5170 kb/s 23.976fps 0.234Bits/Pixel
Аудио #1: Russian: AC3, 48.0 KHz (6 ch) 448 Kbps
Аудио #2: English: DTS, 48.0 KHz (6 ch) 1510 kb/s
MediaInfo
General
Unique ID : 186946071838396593779204195432633903649 (0x8CA480F753C336028817AE314CD2AA21)
Complete name : K:\Torrent\Paren.iz.filadelfii..mkv
Format : Matroska
Format version : Version 2
File size : 4.66 GiB
Duration : 1h 33mn
Overall bit rate : 7 125 Kbps
Encoded date : UTC 2012-07-25 14:35:56
Writing application : mkvmerge v4.4.0 ('Die Wiederkehr') сборка от Oct 31 2010 21:52:48
Writing library : libebml v1.0.0 + libmatroska v1.0.0

Video
ID : 1
Format : AVC
Format/Info : Advanced Video Codec
Format profile : High@L3.1
Format settings, CABAC : Yes
Format settings, ReFrames : 5 frames
Muxing mode : Header stripping
Codec ID : V_MPEG4/ISO/AVC
Duration : 1h 33mn
Bit rate : 5 170 Kbps
Width : 1 280 pixels
Height : 720 pixels
Display aspect ratio : 16:9
Frame rate : 23.976 fps
Color space : YUV
Chroma subsampling : 4:2:0
Bit depth : 8 bits
Scan type : Progressive
Bits/(Pixel*Frame) : 0.234
Stream size : 3.29 GiB (71%)
Writing library : x264 core 125 r2208 d9d2288
Encoding settings : cabac=1 / ref=5 / deblock=1:0:0 / analyse=0x3:0x133 / me=umh / subme=7 / psy=1 / psy_rd=1.00:0.00 / mixed_ref=1 / me_range=16 / chroma_me=1 / trellis=1 / 8x8dct=1 / cqm=0 / deadzone=21,11 / fast_pskip=0 / chroma_qp_offset=-2 / threads=6 / lookahead_threads=1 / sliced_threads=0 / nr=0 / decimate=1 / interlaced=0 / bluray_compat=0 / constrained_intra=0 / bframes=3 / b_pyramid=2 / b_adapt=2 / b_bias=0 / direct=3 / weightb=1 / open_gop=0 / weightp=2 / keyint=250 / keyint_min=23 / scenecut=40 / intra_refresh=0 / rc_lookahead=50 / rc=2pass / mbtree=1 / bitrate=5170 / ratetol=1.0 / qcomp=0.60 / qpmin=0 / qpmax=69 / qpstep=4 / cplxblur=20.0 / qblur=0.5 / ip_ratio=1.40 / aq=1:1.00
Language : English
Default : No
Forced : No

Audio #1
ID : 2
Format : AC-3
Format/Info : Audio Coding 3
Mode extension : CM (complete main)
Muxing mode : Header stripping
Codec ID : A_AC3
Duration : 1h 33mn
Bit rate mode : Constant
Bit rate : 448 Kbps
Channel(s) : 6 channels
Channel positions : Front: L C R, Side: L R, LFE
Sampling rate : 48.0 KHz
Bit depth : 16 bits
Compression mode : Lossy
Delay relative to video : 28ms
Stream size : 300 MiB (6%)
Title : RUS
Language : Russian
Default : No
Forced : No

Audio #2
ID : 3
Format : DTS
Format/Info : Digital Theater Systems
Muxing mode : Header stripping
Codec ID : A_DTS
Duration : 1h 33mn
Bit rate mode : Constant
Bit rate : 1 510 Kbps
Channel(s) : 6 channels
Channel positions : Front: L C R, Side: L R, LFE
Sampling rate : 48.0 KHz
Bit depth : 24 bits
Compression mode : Lossy
Stream size : 1 011 MiB (21%)
Language : English
Default : Yes
Forced : No


Свернуть

Скриншоты
Изображение
Изображение
Изображение
Свернуть
Не в сети
Профиль  
 Добавлено: 2012-07-27 22:13 (спустя 1 день 5 часов)
Аватара пользователя
Стаж: 7 лет 7 месяцев
Сообщений: 13
Кому нравится?
Не в сети
Профиль  
Начать новую темуОтветить на тему  [ Сообщений: 2 ] 
Вы не можете начинать темы
Вы не можете отвечать на сообщения
Вы не можете редактировать свои сообщения
Вы не можете удалять свои сообщения