Правила форума

  • В этом разделе создание новых тем Запрещено.
  • Для создания новых тем пользуйтесь Корневым разделом DVD и HD фильмы.
Начать новую темуОтветить на тему  [ Сообщений: 7 ] 
Торрент файл
Размер: 13.08 GB • Зарегистрирован: 5 лет 2 месяца • Статус: Проверено
Скачан: 102 раза • Желающих скачать: 0 • Поблагодарили: 31 раз
 Раздают: 0  |  0 KB/s  ]   Качают: 0  |  0 KB/s  ] 
 Полного источника не было 8 месяцев 
Сообщения
 Добавлено: 2011-09-23 22:59
Руководитель релиз-группы
Аватара пользователя
Стаж: 9 лет 1 месяц
Возраст: 28
Сообщений: 4244
Спасибок: 31991
Лайков: 32

BDRip 1080p | HQRip-AVC

Изображение
Парфюмер: История одного убийцы
Perfume: The Story of a Murderer


«Enter an intoxicating world of passion, obsession and murder»


Изображение
 Год выпуска: 2006
 Страна: США | Германия | Франция | Испания
 Жанр: триллер | драма

Перевод: Дубляж | Оригинал | Субтитры (русские)

 Режиссер: Том Тыквер

 Авторы сценария: Эндрю Биркин ∙ Бернд Айхингер ∙ Том Тыквер
 Продюсеры: Бернд Айхингер ∙ Кристин Рот ∙ Андреас Шмид
 Оператор: Франк Грибе
 Композиторы: Райнхольд Хайль ∙ Джонни Клаймек ∙ Том Тыквер

 В ролях: Бен Уишоу ∙ Дастин Хоффман ∙ Алан Рикман ∙ Рейчел Хард-Вуд ∙ Андрэ Эррера ∙ Саймон Чендлер ∙ Дэвид Колдер ∙ Ричард Феликс ∙ Берджит Миничмейр ∙ Рег Уилсон

 Описание: Жестокий, никогда не знавший любви, сирота Жан-Батист Гренуй настоящих успехов достиг лишь на одном поприще – среди парфюмеров ему никогда не было равных. По его духам сходит с ума весь высший свет, не подозревая о том, какой страшной ценой будет получен последний, идеальный аромат.

Релиз: Изображение Раздача: Изображение

Доп. информация

Бюджет: $60 000 000 | Сборы: $135 039 924 | Премьера: 7 сентября 2006

Рейтинг R — Restricted. Подростки до 17 лет допускаются на фильм только в сопровождении одного из родителей
Изображение
 Ограничение — до 17 лет требуется сопровождение родителя или взрослого опекуна (возраст может меняться в некоторых регионах). Данный рейтинг показывает, что оценочная комиссия заключила, что некоторый материал оценённого фильма предназначается для взрослых. Родители должны больше узнать о фильме прежде, чем взять на его просмотр детей. Рейтинг R также может быть назначен из-за используемого в фильме языка, темы, насилия, секса или изображения употребления наркотиков.
Свернуть

Свернуть
Знаете ли вы, что...

  ∙ В режиссерское кресло «Парфюмера» могли попасть Тим Бёртон и Ридли Скотт.
  ∙ Среди тех, кто стремился стать режиссером «Парфюмера», стоит отметить Мартина Скорсезе и Милоша Формана. Стэнли Кубрик также рассматривал возможность адаптировать роман для экрана, но в итоге пришел к мнению, что творение Патрика Зюскинда не подлежит экранизации.
  ∙ В течение многих лет Патрик Зюскинд отказывал продюсеру Бернду Эйчингеру в приобретении прав на экранизацию романа. Лишь в 2001 году стороны смогли договориться. Цена вопроса — 10 миллионов евро.
  ∙ Как известно, Патрик Зюскинд относился к экранизации своего культового романа крайне скептически. Опыт его общения с Берндом Эйчингером и другими предприимчивыми продюсерами, отчаянно пытавшимися приобрести права на адаптацию романа, был изображен в сатирической картине «Россини» (1997). Зюскинд собственноручно написал сценарий этой ленты, главный герой которой — причудливый писатель Джэйкоб Виндич. Образ другого героя фильма — Оскара Рейтера был срисован с Бернда Эйчингера. Большинство остальных персонажей «Россини» являются карикатурами на представителей мюнхенского медиа-бизнеса.
  ∙ Бюджет «Парфюмера» стал самым высоким за всю историю существования немецкого кинематографа (50 млн. евро).
  ∙ Впервые «Парфюмер» Патрика Зюскинда был издан в Швейцарии в 1985-м году, а сегодня этот роман уже переведен на 45 языков и имеет общий тираж более 15 миллионов экземпляров.
  ∙ На роль главной героини пробовалась впоследствии трагически погибшая топ-модель Руслана Коршунова.

Свернуть
Награды и премии

 5 Золотых призов «Лола» — за работу оператора, художника-постановщика (Ули Ханиш / Uli Hanisch), художника по костюмам (Пьер-Ив Гайро / Pierre-Yves Gayraud), монтаж (Александр Бернер / Alexander Berner) и звук (Штефан Буш, Дирк Якоб, Михаэль Кранц, Франк Крузе, Маттиас Лемперт, Ханзе Варнс, Роланд Винке — Stefan Busch, Dirk Jacob, Michael Kranz, Frank Kruse, Matthias Lempert, Hanse Warns, Roland Winke), Серебряная премия «Лола» за фильм.

 Кинонаграды «MTV-Россия», 2007 год
Номинации (1):
* Лучший фильм на иностранном языке

 Европейская киноакадемия, 2007 год
Победитель (2):
* Лучшая операторская работа (Франк Грибе)
* Награда Prix d'Excellence
Номинации (3):
* Лучшая мужская роль (Бен Уишоу)
* Лучший композитор (Райнхольд Хайль, Джонни Клаймек, Том Тыквер)
* Приз зрительских симпатий за лучший фильм

 Жорж, 2007 год
Номинации (1):
* Лучший высокобюджетный/зрелищный фильм

Свернуть

Длительность: 02:27:24
Тех. данные: BDRip 1080p | MKV | h.264 | DTS, AC3
Видео: 1920x816 | 11300 kbps | 23.976 fps | 0.301 bit/pixel
Аудио #1: 755 kbps | 48 kHz | 6 channels (Дубляж)
Аудио #2: 640 kbps | 48 kHz | 6 channels (Оригинал)

MediaInfo
General
Unique ID : 204338659945486706965106659738572936992 (0x99BA31C4199483D0918CAF4854ADD720)
Complete name : I:\films\Perfume.The.Story.Of.A.Murderer.2006.BDRip.1080p[R.G.KiNOvNiNO].mkv
Format : Matroska
File size : 13.1 GiB
Duration : 2h 27mn
Overall bit rate : 12.7 Mbps
Movie name : HDClub
Encoded date : UTC 2011-09-23 12:25:36
Writing application : mkvmerge v2.9.8 ('C'est le bon') built on Aug 13 2009 12:49:06
Writing library : libebml v0.7.7 + libmatroska v0.8.1

Video
ID : 1
Format : AVC
Format/Info : Advanced Video Codec
Format profile : High@L4.1
Format settings, CABAC : Yes
Format settings, ReFrames : 5 frames
Codec ID : V_MPEG4/ISO/AVC
Duration : 2h 27mn
Bit rate : 11.3 Mbps
Width : 1 920 pixels
Height : 816 pixels
Display aspect ratio : 2.35:1
Frame rate : 23.976 fps
Color space : YUV
Chroma subsampling : 4:2:0
Bit depth : 8 bits
Scan type : Progressive
Bits/(Pixel*Frame) : 0.301
Stream size : 11.4 GiB (87%)
Title : HDClub
Writing library : x264 core 60
Encoding settings : cabac=1 / ref=5 / deblock=1:-3:-3 / analyse=0x3:0x113 / me=umh / subme=6 / psy_rd=1.000000 / brdo=1 / mixed_ref=1 / me_range=16 / chroma_me=1 / trellis=0 / 8x8dct=1 / cqm=2 / deadzone=6,4 / chroma_qp_offset=0 / threads=6 / nr=0 / decimate=0 / mbaff=0 / bframes=16 / b_pyramid=1 / b_adapt=1 / b_bias=0 / direct=1 / wpredb=1 / bime=1 / keyint=250 / keyint_min=25 / scenecut=40(pre) / rc=2pass / bitrate=11311 / ratetol=1.0 / rceq='blurCplx^(1-qComp)' / qcomp=1.00 / qpmin=10 / qpmax=51 / qpstep=4 / cplxblur=20.0 / qblur=0.5 / ip_ratio=1.40 / pb_ratio=1.30 / aq=2:1.00
Language : English

Audio #1
ID : 2
Format : DTS
Format/Info : Digital Theater Systems
Codec ID : A_DTS
Duration : 2h 27mn
Bit rate mode : Constant
Bit rate : 755 Kbps
Channel(s) : 6 channels
Channel positions : Front: L C R, Side: L R, LFE
Sampling rate : 48.0 KHz
Bit depth : 24 bits
Compression mode : Lossy
Stream size : 796 MiB (6%)
Title : Дубляж
Language : Russian

Audio #2
ID : 3
Format : AC-3
Format/Info : Audio Coding 3
Mode extension : CM (complete main)
Codec ID : A_AC3
Duration : 2h 27mn
Bit rate mode : Constant
Bit rate : 640 Kbps
Channel(s) : 6 channels
Channel positions : Front: L C R, Side: L R, LFE
Sampling rate : 48.0 KHz
Bit depth : 16 bits
Compression mode : Lossy
Stream size : 675 MiB (5%)
Language : English

Text
ID : 4
Format : UTF-8
Codec ID : S_TEXT/UTF8
Codec ID/Info : UTF-8 Plain Text
Language : Russian

Свернуть

Скриншоты

Изображение

Изображение

Изображение

Свернуть

_________________
«you failed because you had the wrong dream...»
Не в сети
Профиль  
 Добавлено: 2011-09-24 12:02 (спустя 13 часов)
Top-seeder
Аватара пользователя
Стаж: 8 лет 8 месяцев
Возраст: 26
Сообщений: 665
Спасибок: 2687
Лайков: 2
:bra_vo: спасибо
Не в сети
Профиль  
 Добавлено: 2012-05-27 15:52 (спустя 8 месяцев)
Стаж: 7 лет 10 месяцев
Сообщений: 4
раздайте! :)
Не в сети
Профиль  
 Добавлено: 2012-08-24 20:34 (спустя 2 месяца 28 дней)
Стаж: 5 лет 11 месяцев
Сообщений: 44
народ подбавте скорости на пару деньков. заранее спасибо!!!
Не в сети
Профиль  
 Добавлено: 2012-08-27 19:00 (спустя 2 дня 22 часа)
Аватара пользователя
Стаж: 5 лет 11 месяцев
Возраст: 37
Сообщений: 38

word:

раздайте! :)
+1
Не в сети
Профиль  
 Добавлено: 2013-03-18 12:11 (спустя 6 месяцев)
Аватара пользователя
Стаж: 4 года 5 месяцев
Возраст: 25
Сообщений: 61
Лайков: 2
встаньте пожалйста на раздачу)))за ранее спасибо)))
_________________
потапов
Не в сети
Профиль  
 Добавлено: 2014-06-22 16:37 (спустя 1 год 3 месяца)
Аватара пользователя
Стаж: 7 лет 10 месяцев
Сообщений: 64
Лайков: 2
Встаньте на раздачу пожалуйста)
Не в сети
Профиль  
Начать новую темуОтветить на тему  [ Сообщений: 7 ] 
Вы не можете начинать темы
Вы не можете отвечать на сообщения
Вы не можете редактировать свои сообщения
Вы не можете удалять свои сообщения