Правила форума

  • В этом разделе создание новых тем Запрещено.
  • Для создания новых тем пользуйтесь Корневым разделом DVD и HD фильмы.
Начать новую темуОтветить на тему  [ Сообщений: 9 ] 
Торрент файл
Размер: 11.33 GB • Зарегистрирован: 1 год 11 месяцев • Статус: Проверено
Скачан: 164 раза • Желающих скачать: 0 • Поблагодарили: 43 раза
 Раздают: 0  |  0 KB/s  ]   Качают: 0  |  0 KB/s  ] 
 Полного источника не было 9 часов 
Сообщения
 Добавлено: 2014-12-13 01:09
Аватара пользователя
Стаж: 9 лет 1 месяц
Сообщений: 7922
Спасибок: 122118
Лайков: 1191
Париж: Город мёртвых / As Above, So Below

«Увидеть Париж и умереть»

Изображение


Год выпуска: 2014
Страна: Изображение США
Жанр: ужасы, триллер
Продолжительность: 01:33:08
Субтитры: Русские, английские, украинские
Перевод: Профессиональный (полное дублирование) [Лицензия]


Режиссер: Джон Эрик Даудл
Сценарий: Дрю Даудл, Джон Эрик Даудл
Продюсер: Патрик Айелло, Дрю Даудл, Джон Дж. Джашни
Оператор: Лео Энстен

В ролях: Пердита Викс, Бен Фельдман, Эдвин Ходж, Франсуа Сивиль, Мэрион Ламберт, Али Мархьяр, Косме Кастро, Хамид Джавадан, Тео Чолби, Эми Леви

Описание: Величие Эйфелевой башни и роскошь бутиков, ароматы изысканной кухни и краски Елисейских полей — это лишь саван, под которым скрывается настоящий Париж. Здесь, в бесконечных катакомбах живут истинные владыки этого мира.

Заблудшая душа, добро пожаловать в Город мертвых…


Изображение Изображение

Раздача группы: Изображение

Качество: BDRip (1080p)
Формат: Matroska
Видео: MPEG-4 AVC, 14.3 Мбит/с, 1920x1040
Аудио №1: Русский (DTS, 48,0 КГц, 6 ch, 1510 Кбит/c)
Аудио №2: Русский (AC3, 48,0 КГц, 6 ch, 448 Кбит/c)
Аудио №3: Английский (DTS, 48,0 КГц, 6 ch, 1510 Кбит/c)

MediaInfo
Общее
Уникальный идентификатор : 210940199659786402481399168925859894473 (0x9EB19ACD9E30138B95074D9C5364D4C9)
Полное имя : C:\Фильмы\As.Above.So.Below.2014.D.BDRip.1080p.RUSTORRENTS.ORG.mkv
Формат : Matroska
Версия формата : Version 2
Размер файла : 11,3 Гбайт
Продолжительность : 1 ч. 33 м.
Общий поток : 17,4 Мбит/сек
Название фильма : As.Above.So.Below.2014.D.BDRip.1080p.RUSTORRENTS.ORG[Kolbas&TimeMashine]
Дата кодирования : UTC 2014-12-12 12:25:21
Программа кодирования : mkvmerge v5.0.1 ('Es ist Sommer') built on Nov 6 2011 16:23:40
Библиотека кодирования : libebml v1.2.2 + libmatroska v1.3.0
DURATION : 01:31:33.237000000
NUMBER_OF_FRAMES : 1575
NUMBER_OF_BYTES : 41777
_STATISTICS_WRITING_APP : mkvmerge v7.3.0 ('Nouages') 64bit built on Oct 22 2014 18:53:34
_STATISTICS_WRITING_DATE_UTC : 2014-11-19 08:45:27
_STATISTICS_TAGS : BPS DURATION NUMBER_OF_FRAMES NUMBER_OF_BYTES
Attachment : Yes

Видео
Идентификатор : 1
Формат : AVC
Формат/Информация : Advanced Video Codec
Профиль формата : High@L4.1
Параметр CABAC формата : Да
Параметр ReFrames формата : 4 кадра
Идентификатор кодека : V_MPEG4/ISO/AVC
Продолжительность : 1 ч. 33 м.
Битрейт : 14,3 Мбит/сек
Ширина : 1920 пикселей
Высота : 1040 пикселей
Соотношение сторон : 1,85:1
Режим частоты кадров : Постоянный
Частота кадров : 23,976 кадра/сек
Цветовое пространство : YUV
Субдискретизация насыщенности : 4:2:0
Битовая глубина : 8 бит
Тип развёртки : Прогрессивная
Бит/(Пиксели*Кадры) : 0.300
Размер потока : 9,33 Гбайт (82%)
Заголовок : As.Above.So.Below.2014.D.BDRip.1080p.ELEKTRI4KA [Kolbas&TimeMashine]
Библиотека кодирования : x264 core 142 r2479 dd79a61
Настройки программы : cabac=1 / ref=4 / deblock=1:-3:-3 / analyse=0x3:0x133 / me=umh / subme=10 / psy=1 / psy_rd=1.00:0.00 / mixed_ref=1 / me_range=48 / chroma_me=1 / trellis=2 / 8x8dct=1 / cqm=0 / deadzone=21,11 / fast_pskip=1 / chroma_qp_offset=-2 / threads=16 / lookahead_threads=2 / sliced_threads=0 / nr=0 / decimate=1 / interlaced=0 / bluray_compat=0 / constrained_intra=0 / bframes=9 / b_pyramid=2 / b_adapt=2 / b_bias=0 / direct=3 / weightb=1 / open_gop=0 / weightp=2 / keyint=250 / keyint_min=23 / scenecut=40 / intra_refresh=0 / rc_lookahead=150 / rc=crf / mbtree=0 / crf=16.7 / qcomp=0.70 / qpmin=0 / qpmax=69 / qpstep=4 / vbv_maxrate=50000 / vbv_bufsize=62500 / crf_max=0.0 / nal_hrd=none / filler=0 / ip_ratio=1.30 / pb_ratio=1.20 / aq=1:0.80
Язык : English
Default : Да
Forced : Нет

Аудио #1
Идентификатор : 2
Формат : DTS
Формат/Информация : Digital Theater Systems
Режим : 16
Параметр Endianness формата : Big
Идентификатор кодека : A_DTS
Продолжительность : 1 ч. 33 м.
Вид битрейта : Постоянный
Битрейт : 768 Кбит/сек
Каналы : 6 каналов
Расположение каналов : Front: L C R, Side: L R, LFE
Частота : 48,0 КГц
Битовая глубина : 24 бит
Метод сжатия : С потерями
Размер потока : 512 Мбайт (4%)
Заголовок : As.Above.So.Below.2014.D.BDRip.1080p.ELEKTRI4KA [Kolbas&TimeMashine]
Язык : Russian
Default : Да
Forced : Нет

Аудио #2
Идентификатор : 3
Формат : AC-3
Формат/Информация : Audio Coding 3
Расширение режима : CM (complete main)
Параметр Endianness формата : Big
Идентификатор кодека : A_AC3
Продолжительность : 1 ч. 33 м.
Вид битрейта : Постоянный
Битрейт : 448 Кбит/сек
Каналы : 6 каналов
Расположение каналов : Front: L C R, Side: L R, LFE
Частота : 48,0 КГц
Битовая глубина : 16 бит
Метод сжатия : С потерями
Размер потока : 298 Мбайт (3%)
Заголовок : As.Above.So.Below.2014.D.BDRip.1080p.ELEKTRI4KA [Kolbas&TimeMashine]
Язык : Russian
Default : Нет
Forced : Нет

Аудио #3
Идентификатор : 4
Формат : DTS
Формат/Информация : Digital Theater Systems
Режим : 16
Параметр Endianness формата : Big
Идентификатор кодека : A_DTS
Продолжительность : 1 ч. 33 м.
Вид битрейта : Постоянный
Битрейт : 1509 Кбит/сек
Каналы : 6 каналов
Расположение каналов : Front: L C R, Side: L R, LFE
Частота : 48,0 КГц
Битовая глубина : 24 бит
Метод сжатия : С потерями
Задержка видео : 11 мс.
Размер потока : 1005 Мбайт (9%)
Заголовок : As.Above.So.Below.2014.D.BDRip.1080p.ELEKTRI4KA [Kolbas&TimeMashine]
Язык : English
Default : Нет
Forced : Нет

Текст #1
Идентификатор : 5
Формат : PGS
Режим смешивания : zlib
Идентификатор кодека : S_HDMV/PGS
Идентификатор кодека/Информация : The same subtitle format used on BDs/HD-DVDs
Заголовок : As.Above.So.Below.2014.D.BDRip.1080p.ELEKTRI4KA [Kolbas&TimeMashine]
Язык : Russian
Default : Да
Forced : Нет

Текст #2
Идентификатор : 6
Формат : PGS
Режим смешивания : zlib
Идентификатор кодека : S_HDMV/PGS
Идентификатор кодека/Информация : The same subtitle format used on BDs/HD-DVDs
Заголовок : As.Above.So.Below.2014.D.BDRip.1080p.ELEKTRI4KA [Kolbas&TimeMashine]
Язык : Russian
Default : Нет
Forced : Нет

Текст #3
Идентификатор : 7
Формат : PGS
Режим смешивания : zlib
Идентификатор кодека : S_HDMV/PGS
Идентификатор кодека/Информация : The same subtitle format used on BDs/HD-DVDs
Заголовок : As.Above.So.Below.2014.D.BDRip.1080p.ELEKTRI4KA [Kolbas&TimeMashine]
Язык : Ukrainian
Default : Нет
Forced : Нет

Текст #4
Идентификатор : 8
Формат : UTF-8
Идентификатор кодека : S_TEXT/UTF8
Идентификатор кодека/Информация : UTF-8 Plain Text
Заголовок : As.Above.So.Below.2014.D.BDRip.1080p.ELEKTRI4KA [Kolbas&TimeMashine]
Язык : English
Default : Нет
Forced : Нет

Текст #5
Идентификатор : 9
Формат : UTF-8
Идентификатор кодека : S_TEXT/UTF8
Идентификатор кодека/Информация : UTF-8 Plain Text
Заголовок : As.Above.So.Below.2014.D.BDRip.1080p.ELEKTRI4KA [Kolbas&TimeMashine]
Язык : English
Default : Нет
Forced : Нет

Меню
00:00:00.000 : en:00:00:00.000
00:07:00.045 : en:00:07:00.045
00:09:42.749 : en:00:09:42.749
00:13:18.673 : en:00:13:18.673
00:18:37.074 : en:00:18:37.074
00:22:33.352 : en:00:22:33.352
00:24:42.815 : en:00:24:42.815
00:29:38.777 : en:00:29:38.777
00:33:03.857 : en:00:33:03.857
00:37:17.777 : en:00:37:17.777
00:43:05.333 : en:00:43:05.333
00:47:07.491 : en:00:47:07.491
00:53:20.739 : en:00:53:20.739
00:59:00.328 : en:00:59:00.328
01:05:33.555 : en:01:05:33.555
01:11:40.213 : en:01:11:40.213
01:16:05.603 : en:01:16:05.603
01:20:20.733 : en:01:20:20.733
01:26:02.616 : en:01:26:02.616
01:27:57.189 : en:01:27:57.189
Свернуть
Знаете ли вы, что...
Фильм снимался в настоящих катакомбах, а не на съемочной площадке.

У фильма не было предварительного показа для критиков.

Когда в фильме показывают дом Фламеля, то показывают, что он находится на улице Фламеля. На самом деле дом Фламеля находится на улице Монморанси.

Свернуть
Скриншоты
Изображение
Изображение
Изображение
Свернуть
В сети
Профиль  
 Добавлено: 2015-01-04 12:22 (спустя 22 дня)
Стаж: 2 года 9 месяцев
Сообщений: 11
Очень слабый.
Не в сети
Профиль  
 Добавлено: 2015-01-04 16:36 (спустя 4 часа)
Стаж: 9 лет
Сообщений: 312
Спасибок: 347
Лайков: 9
Когда в ролях Пердита, ждать хорошего не стоит
 рюрика нравится это.
Не в сети
Профиль  
 Добавлено: 2015-01-06 01:22 (спустя 1 день 8 часов)
Стаж: 7 лет 5 месяцев
Сообщений: 34
интересный фильм. спасибо.
Не в сети
Профиль  
 Добавлено: 2015-01-06 03:03 (спустя 1 час 41 минута)
Стаж: 2 года 5 месяцев
Сообщений: 6
:) :) :)
Не в сети
Профиль  
 Добавлено: 2015-01-06 19:44 (спустя 16 часов)
Стаж: 8 лет 1 месяц
Сообщений: 211
Лайков: 22
Blaster
браво!!!)))
Не в сети
Профиль  
 Добавлено: 2015-01-09 18:08 (спустя 2 дня 22 часа)
Аватара пользователя
Стаж: 9 лет
Сообщений: 41
Спасибок: 7
хорош!однозначно :men:
Не в сети
Профиль  
 Добавлено: 2015-01-17 23:36 (спустя 8 дней)
Аватара пользователя
Стаж: 8 лет 1 месяц
Сообщений: 17
Спасибок: 4
Лайков: 3
надеюсь,что фильм достоин просмотра...
Не в сети
Профиль  
 Добавлено: 2015-01-20 16:20 (спустя 2 дня 16 часов)
Аватара пользователя
Стаж: 8 лет 7 месяцев
Сообщений: 340
Спасибок: 22
Лайков: 3
Нормальный фильм
Не в сети
Профиль  
Начать новую темуОтветить на тему  [ Сообщений: 9 ] 
Вы не можете начинать темы
Вы не можете отвечать на сообщения
Вы не можете редактировать свои сообщения
Вы не можете удалять свои сообщения