Правила форума

  • В этом разделе создание новых тем Запрещено.
  • Для создания новых тем пользуйтесь Корневым разделом DVD и HD фильмы.
Начать новую темуОтветить на тему  [ Сообщений: 3 ] 
Торрент файл
Размер: 30.06 GB • Зарегистрирован: 5 лет 1 месяц • Статус: Проверено
Скачан: 52 раза • Желающих скачать: 0 • Поблагодарили: 29 раз
 Раздают: 0  |  0 KB/s  ]   Качают: 0  |  0 KB/s  ] 
 Полного источника не было 1 год 
Сообщения
 Добавлено: 2011-11-02 14:10
Модератор релиз-группы
Аватара пользователя
Стаж: 9 лет 1 месяц
Возраст: 97
Сообщений: 11660
Спасибок: 6534
Лайков: 269
Парк Юрского Периода Трилогия / Jurassic Park Ultimate Collection

Изображение


Парк Юрского периода
Парк Юрского периода / Jurassic Park
«The most phenomenal discovery of our time... becomes the greatest adventure of all time.»

Изображение


Страна: США
Жанр: фантастика, боевик, приключения, семейный
Год выпуска: 1993
Продолжительность: 02:06:36
Перевод: Профессиональный многоголосый закадровый


Режиссер: Стивен Спилберг / Steven Spielberg

В ролях: Сэм Нил, Лора Дерн, Джефф Голдблюм, Ричард Аттенборо, Боб Пек, Мартин Ферреро, Джозеф Маццелло, Ариана Ричардс, Сэмюэл Л. Джексон, Б.Д. Вонг

Описание: Экспансивный богач и профессор уговаривает пару ученых-палеонтологов приехать на остров у побережья Коста-Рики, где он устроил реликтовый парк. В парке этом водятся древние зверушки — динозавры, которые по его идее и должны стать гвоздем программы нового аттракциона.
До открытия остается несколько дней, а один из работников, пытаясь продать «рассаду» налево, нарушает систему охраны, что в комплексе с грозовым ливнем приводит к тому, что доисторические животные оказываются на воле, где действуют в соответствии со своими инстинктами.


Качество: BDRip
Формат: MKV
Видео: MPEG-4 AVC / 11.6 Mbps / 1080p / 23,976 fps / 16:9
Аудио : Russian / Dolby Digital Audio / 5.1 / 48 kHz / 448 kbps / DN -4dB многоголосый закадровый
скриншоты
Изображение

Изображение

Изображение
Свернуть
Mi
Format : Matroska
Format version : Version 2
File size : 10.4 GiB
Duration : 2h 6mn
Overall bit rate : 11.7 Mbps
Encoded date : UTC 2011-11-02 09:55:04
Writing application : mkvmerge v5.0.1 ('Es ist Sommer') built on Oct 9 2011 11:55:43
Writing library : libebml v1.2.2 + libmatroska v1.3.0

Video
ID : 1
Format : AVC
Format/Info : Advanced Video Codec
Format profile : High@L4.0
Format settings, CABAC : Yes
Format settings, ReFrames : 3 frames
Codec ID : V_MPEG4/ISO/AVC
Duration : 2h 6mn
Bit rate mode : Variable
Bit rate : 11.6 Mbps
Maximum bit rate : 20.0 Mbps
Width : 1 920 pixels
Height : 1 080 pixels
Display aspect ratio : 16:9
Frame rate : 23.976 fps
Color space : YUV
Chroma subsampling : 4:2:0
Bit depth : 8 bits
Scan type : Progressive
Bits/(Pixel*Frame) : 0.232
Stream size : 9.78 GiB (94%)
Writing library : x264 core 93 r1542M 5b86182
Encoding settings : cabac=1 / ref=4 / deblock=1:0:0 / analyse=0x3:0x12 / me=hex / subme=2 / psy=1 / psy_rd=0.00:0.00 / mixed_ref=0 / me_range=16 / chroma_me=1 / trellis=0 / 8x8dct=1 / cqm=0 / deadzone=21,11 / fast_pskip=1 / chroma_qp_offset=0 / threads=3 / sliced_threads=0 / nr=0 / decimate=1 / interlaced=0 / constrained_intra=0 / bframes=3 / b_pyramid=1 / b_adapt=1 / b_bias=0 / direct=1 / wpredb=1 / wpredp=0 / keyint=48 / keyint_min=8 / scenecut=40 / intra_refresh=0 / rc_lookahead=48 / rc=abr / mbtree=0 / bitrate=11550 / ratetol=1.0 / qcomp=0.50 / qpmin=10 / qpmax=51 / qpstep=4 / vbv_maxrate=20000 / vbv_bufsize=25000 / ip_ratio=1.10 / pb_ratio=1.10 / aq=1:1.00 / nal_hrd=vbr

Audio
ID : 2
Format : AC-3
Format/Info : Audio Coding 3
Mode extension : CM (complete main)
Codec ID : A_AC3
Duration : 2h 6mn
Bit rate mode : Constant
Bit rate : 448 Kbps
Channel(s) : 6 channels
Channel positions : Front: L C R, Side: L R, LFE
Sampling rate : 48.0 KHz
Bit depth : 16 bits
Compression mode : Lossy
Delay relative to video : -1s 0ms
Stream size : 406 MiB (4%)
Свернуть
Свернуть




Парк Юрского периода 2: Затерянный мир
Парк Юрского периода 2: Затерянный мир / The Lost World: Jurassic Park
«Но все-таки кто-то выжил.»

Изображение


Страна: США
Жанр: фантастика, боевик, триллер, приключения
Год выпуска: 1997
Продолжительность: 02:08:40
Перевод: Профессиональный многоголосый закадровый

Режиссер: Стивен Спилберг / Steven Spielberg

В ролях: Джефф Голдблюм, Джулианна Мур, Пит Постлетуэйт, Ричард Аттенборо, Винс Вон, Арлисс Ховард, Ванесса Ли Честер, Петер Стормаре, Харви Джейсон, Ричард Шифф

Описание: События этого фильма разворачиваются через четыре года после того, что произошло в «Парке Юрского периода». На близлежащем острове динозавры выжили и адаптировались к дикой природе. Но вот находится Некто, кто хочет перевезти их на материк и заработать на этом, не понимая, какими могут быть последствия, и посылает на остров своих людей.

Джон Хэммонд, который потерял контроль над своей компанией, считает, что у него появился шанс исправить свои прошлые ошибки. Он, в свою очередь, снаряжает экспедицию во главе с Яном Малкольмом, чтобы появиться там до высадки наемников.

В результате происходящих событий две эти конфликтующие группы вынуждены объединиться перед лицом смертельной опасности. И, как потом выясняется, времени им отпущено совсем немного.
Качество: BDRip
Формат: MKV
Видео: MPEG-4 AVC / 11.1 Mbps / 1080p / 23,976 fps / 16:9
Аудио : Russian / Dolby Digital Audio / 5.1 / 48 kHz / 448 kbps / многоголосый закадровый

скриншоты
Изображение

Изображение

Изображение
Свернуть
Mi
Format : Matroska
Format version : Version 2
File size : 10.1 GiB
Duration : 2h 8mn
Overall bit rate : 11.3 Mbps
Encoded date : UTC 2011-11-02 10:21:07
Writing application : mkvmerge v5.0.1 ('Es ist Sommer') built on Oct 9 2011 11:55:43
Writing library : libebml v1.2.2 + libmatroska v1.3.0

Video
ID : 1
Format : AVC
Format/Info : Advanced Video Codec
Format profile : High@L4.0
Format settings, CABAC : Yes
Format settings, ReFrames : 3 frames
Codec ID : V_MPEG4/ISO/AVC
Duration : 2h 8mn
Bit rate mode : Variable
Bit rate : 11.1 Mbps
Maximum bit rate : 20.0 Mbps
Width : 1 920 pixels
Height : 1 080 pixels
Display aspect ratio : 16:9
Frame rate : 23.976 fps
Color space : YUV
Chroma subsampling : 4:2:0
Bit depth : 8 bits
Scan type : Progressive
Bits/(Pixel*Frame) : 0.223
Stream size : 9.53 GiB (94%)
Writing library : x264 core 93 r1542M 5b86182
Encoding settings : cabac=1 / ref=4 / deblock=1:0:0 / analyse=0x3:0x12 / me=hex / subme=2 / psy=1 / psy_rd=0.00:0.00 / mixed_ref=0 / me_range=16 / chroma_me=1 / trellis=0 / 8x8dct=1 / cqm=0 / deadzone=21,11 / fast_pskip=1 / chroma_qp_offset=0 / threads=3 / sliced_threads=0 / nr=0 / decimate=1 / interlaced=0 / constrained_intra=0 / bframes=3 / b_pyramid=1 / b_adapt=1 / b_bias=0 / direct=1 / wpredb=1 / wpredp=0 / keyint=48 / keyint_min=8 / scenecut=40 / intra_refresh=0 / rc_lookahead=48 / rc=abr / mbtree=0 / bitrate=11078 / ratetol=1.0 / qcomp=0.50 / qpmin=10 / qpmax=51 / qpstep=4 / vbv_maxrate=20000 / vbv_bufsize=25000 / ip_ratio=1.10 / pb_ratio=1.10 / aq=1:1.00 / nal_hrd=vbr

Audio
ID : 2
Format : AC-3
Format/Info : Audio Coding 3
Mode extension : CM (complete main)
Codec ID : A_AC3
Duration : 2h 8mn
Bit rate mode : Constant
Bit rate : 448 Kbps
Channel(s) : 6 channels
Channel positions : Front: L C R, Side: L R, LFE
Sampling rate : 48.0 KHz
Bit depth : 16 bits
Compression mode : Lossy
Delay relative to video : -1s 0ms
Stream size : 412 MiB (4%)

Свернуть
Свернуть




Парк Юрского периода 3
Парк Юрского периода 3 / Jurassic Park III
«With every sound, with every heartbeat, there will be more to fear than ever before»

Изображение


Страна: США
Жанр: фантастика, боевик, триллер, приключения
Год выпуска: 2001
Продолжительность: 01:32:20
Перевод: Профессиональный дублированный

Режиссер: Джо Джонстон / Joe Johnston

В ролях: Сэм Нил, Уильям Х. Мэйси, Теа Леони, Алессандро Нивола, Тревор Морган, Майкл Джитер, Джон Дил, Брюс А. Янг, Лора Дерн, Тейлор Николс

Описание: Герой Сэма Нила, палеонтолог Алан Грант, принимает предложение состоятельного предпринимателя совершить обзорную экскурсию над печально знаменитым островом Сорна на специально нанятом самолете. Мог ли доктор Грант предполагать, что страшная, непредвиденная катастрофа снова заставит его столкнуться со свирепыми плотоядными существами из прошлого?!
Более того, с момента ужасных событий картины «Парк Юрского периода» динозавры стали хитрее, сильнее и несоизмеримо опасней. Начинается новая, стремительная и жуткая гонка на выживание, в сравнении с которой все прошлые похождения доктора Гранта — лишь детские игрушки!

Качество: BDRip
Формат: MKV
Видео: MPEG-4 AVC / 14.4 Mbps / 1080p / 23,976 fps / 16:9
Аудио : Russian / Dolby Digital Audio / 5.1 / 48 kHz / 448 kbps / Дубляж
скриншоты
Изображение

Изображение

Изображение
Свернуть
Mi
Format : Matroska
Format version : Version 2
File size : 9.54 GiB
Duration : 1h 32mn
Overall bit rate : 14.8 Mbps
Encoded date : UTC 2011-11-02 10:51:56
Writing application : mkvmerge v5.0.1 ('Es ist Sommer') built on Oct 9 2011 11:55:43
Writing library : libebml v1.2.2 + libmatroska v1.3.0

Video
ID : 1
Format : AVC
Format/Info : Advanced Video Codec
Format profile : High@L4.0
Format settings, CABAC : Yes
Format settings, ReFrames : 3 frames
Codec ID : V_MPEG4/ISO/AVC
Duration : 1h 32mn
Bit rate mode : Variable
Bit rate : 14.4 Mbps
Maximum bit rate : 20.0 Mbps
Width : 1 920 pixels
Height : 1 080 pixels
Display aspect ratio : 16:9
Frame rate : 23.976 fps
Color space : YUV
Chroma subsampling : 4:2:0
Bit depth : 8 bits
Scan type : Progressive
Bits/(Pixel*Frame) : 0.290
Stream size : 9.06 GiB (95%)
Writing library : x264 core 93 r1542M 5b86182
Encoding settings : cabac=1 / ref=4 / deblock=1:0:0 / analyse=0x3:0x12 / me=hex / subme=2 / psy=1 / psy_rd=0.00:0.00 / mixed_ref=0 / me_range=16 / chroma_me=1 / trellis=0 / 8x8dct=1 / cqm=0 / deadzone=21,11 / fast_pskip=1 / chroma_qp_offset=0 / threads=3 / sliced_threads=0 / nr=0 / decimate=1 / interlaced=0 / constrained_intra=0 / bframes=3 / b_pyramid=1 / b_adapt=1 / b_bias=0 / direct=1 / wpredb=1 / wpredp=0 / keyint=48 / keyint_min=8 / scenecut=40 / intra_refresh=0 / rc_lookahead=48 / rc=abr / mbtree=0 / bitrate=14426 / ratetol=1.0 / qcomp=0.50 / qpmin=10 / qpmax=51 / qpstep=4 / vbv_maxrate=20000 / vbv_bufsize=25000 / ip_ratio=1.10 / pb_ratio=1.10 / aq=1:1.00 / nal_hrd=vbr

Audio
ID : 2
Format : AC-3
Format/Info : Audio Coding 3
Mode extension : CM (complete main)
Codec ID : A_AC3
Duration : 1h 32mn
Bit rate mode : Constant
Bit rate : 448 Kbps
Channel(s) : 6 channels
Channel positions : Front: L C R, Side: L R, LFE
Sampling rate : 48.0 KHz
Bit depth : 16 bits
Compression mode : Lossy
Delay relative to video : -1s 0ms
Stream size : 296 MiB (3%)

Свернуть
Свернуть
Изображение
_________________
Изображение


Последний раз редактировалось Артурыч 2011-11-03 11:04, всего редактировалось 1 раз.
 Ураган86 нравится это.
Не в сети
Профиль  
 Добавлено: 2011-11-02 23:53 (спустя 9 часов)
Аватара пользователя
Стаж: 8 лет 3 месяца
Возраст: 43
Сообщений: 3290
Спасибок: 21012
Лайков: 3
хорошее кино, 10 дней в объявления
_________________
Изображение
Не в сети
Профиль  
 Добавлено: 2012-08-04 16:40 (спустя 9 месяцев)
Top-seeder
Аватара пользователя
Стаж: 8 лет 11 месяцев
Возраст: 29
Сообщений: 469
Спасибок: 45
Тоже качну в коллекцию) :co_ol:
_________________
Ноут:
Acer Aspire TimelineUltra M5 проц i5 3317U, оперы 6гб, видеокарта GeForce 640m 1гб DDR5, ЖД 128SSD, и 1тб
Свернуть
ДК:
Усилитель Harman/Kardon HK-6500, Плазменная панель 50" LG 50PZ551, Ушки Sennheiser HD 449
Свернуть


Тема поднималась пользователем Артурыч 2012-08-04 16:40.
Не в сети
Профиль  
Начать новую темуОтветить на тему  [ Сообщений: 3 ] 
Вы не можете начинать темы
Вы не можете отвечать на сообщения
Вы не можете редактировать свои сообщения
Вы не можете удалять свои сообщения