Правила форума

  • В этом разделе создание новых тем Запрещено.
  • Для создания новых тем пользуйтесь Корневым разделом DVD и HD фильмы.
Начать новую темуОтветить на тему  [ Сообщений: 5 ] 
Торрент файл
Размер: 13.11 GB • Зарегистрирован: 5 лет 1 месяц • Статус: Проверено
Скачан: 164 раза • Желающих скачать: 0 • Поблагодарили: 54 раза
 Раздают: 4  |  0 KB/s  ]   Качают: 0  |  0 KB/s  ] 
Сообщения
 Добавлено: 2011-11-03 14:31
Top-releaser
Аватара пользователя
Стаж: 8 лет 9 месяцев
Сообщений: 479
Спасибок: 20187
Лайков: 16
Парк Юрского Периода. Трилогия

Изображение

1993 - Парк Юрского периода / Jurassic Park

ИзображениеИзображениеИзображение

Парк Юрского периода

«The most phenomenal discovery of our time... becomes the greatest adventure of all time.»

Изображение

Год выпуска: 1993
Страна: Изображение США; Universal Pictures
Жанр: Фантастика, боевик, приключения, семейный
Продолжительность: 02:06:37
Перевод: Профессиональный (многоголосый закадровый)
Cубтитры: Английские

Режиссёр: Стивен Спилберг / Steven Spielberg

В ролях: Сэм Нил, Лора Дерн, Джефф Голдблюм, Ричард Аттенборо, Боб Пек, Мартин Ферреро, Джозеф Маццелло, Ариана Ричардс, Сэмюэл Л. Джексон, Б.Д. Вонг

Описание: Экспансивный богач и профессор уговаривает пару ученых-палеонтологов приехать на остров у побережья Коста-Рики, где он устроил реликтовый парк. В парке этом водятся древние зверушки — динозавры, которые по его идее и должны стать гвоздем программы нового аттракциона.

До открытия остается несколько дней, а один из работников, пытаясь продать «рассаду» налево, нарушает систему охраны, что в комплексе с грозовым ливнем приводит к тому, что доисторические животные оказываются на воле, где действуют в соответствии со своими инстинктами.


Качество: BDRip 1080p
Формат: MKV

Видео: 1920x1040 (16:9), 23.976 fps, 4495 kbps
Аудио : AC-3, 448 Кбит/сек, 6 канала(ов), 48,0 КГц
Раздача: Изображение

Изображение

Изображение
Знаете ли Вы что....

Изображение
Изображение

• Борьба за право экранизировать одноимённый роман Майкла Крайтона началась ещё до его публикации. Главным требованием автора были стартовый гонорар в 1,5 млн. долларов и немалый процент от будущих сборов. Среди заинтересовавшихся романом киностудий были Warner Bros., Columbia Pictures и 20th Century Fox, видевшие в режиссерском кресле соответственно Тима Бёртона, Ричарда Доннера и Джо Данте, но, в конечном счете, в мае 1990 года права достались Universal Pictures и Стивену Спилбергу.
• Съёмки фильма проходили с 24 августа по 30 ноября 1992 года на Гавайских островах (остров Кауаи) и в Калифорнии.
• 11 сентября 1992 года ураган Иники обрушился на Гавайские острова, вызвав кратковременную задержку в съемках фильма. Из-за урагана съёмочная группа перебралась на крупнейший остров архипелага Оаху, где была снята сцена с тираннозавром, появляющимся из-за кустов и поедающим мелкого динозавра галлимимуса. Это единственная сцена на открытом воздухе, снятая не на острове Кауаи.
• Роль доктора Саттлер первоначально была предложена Робин Райт Пенн. Также её могла сыграть Жюльетт Бинош, которая отклонила предложение, отдав предпочтение картине «Три цвета: Синий (1993).
• Оператор фильма Дин Канди появляется в камео в качестве рабочего дока, с которым Деннис Недри разговаривает через свой компьютер.
• Самый первый вариант сценария картины было поручено написать самому Майклу Крайтону, в тот период пока режиссёр Стивен Спилберг был занят работой над фильмом «Крюк» (1991). По словам автора из-за значительного объёма романа сценарий будущего фильма вобрал в себя не больше 10-20% книги. В октябре 1991 года за переработку сценария взялась Малия Скотч Мармо, а в начале 1992 года к работе приступил Дэвид Копп, внёсший значительные изменения в предыдущую версию.
• По настоянию Стивена Спилберга сценаристы поменяли местами возраст детей, Лекс и Тима, и их персонажи. В Романе Майкла Крайтона одиннадцатилетний Тим одержим компьютерами и старше своей сестры, которой 7-8 лет. Это было сделано для того, чтобы роль Тима смог получить юный Джозеф Мацелло, который на прослушиваниях к фильму «Капитан Крюк» (1991) произвёл исключительно сильное впечатление на знаменитого режиссёра.
• Ариана Ричардс получила приглашение на прослушивания после того как Стивен Спилберг обратил внимание на игру юной актрисы в телевизионной драме «Арлина и Кимберли» (1991), за которую та была удостоена Young Artist Award – главной награды года для молодых исполнителей. В числе прочего режиссёра интересовало насколько хорошо и громко актриса сможет кричать, для чего отвечающий за подбор актёров в течение трёх минут записывал отчаянные крики девочки. Получившийся результат полностью удовлетворил режиссёра, который позднее утверждал, что он не слышал столь правдоподобных криков ужаса со времён «Кинг-Конга» 1933 года.
• Роль Лекс могла достаться Анне Кламски.
• Дрожание воды в стакане в салоне Форда при приближении тираннозавра было достигнуто с помощью струны гитары, прикреплённой снизу к подносу, на котором стоял стакан.
• Крупная фирма по производству игрушек Kenner выпустила серию фигурок, изображающих персонажи фильма: Гранта, Саттлер, Малкольма, Малдона, Недри и Тима. Ариана Ричардс была очень расстроена, что её персонаж (Лекс) не удостоился такой чести.
• Аниматронная модель малыша-трицератопса была сконструирована специально для сцены, в которой один из детей решает прокатиться верхом на динозавре. Постановщики спецэффектов бились над этой сценой около года, но в последний момент она была вырезана из финальной версии фильма, поскольку режиссёр посчитал, что сцена неоправданно замедляла бы ход развития событий.
• Премьера фильма прошла 9 июня 1993 года в музее National Building Museum в Нью-Йорке, а все вырученные от неё средства пошли на благотворительность.
• Первая актёрская работа Ричарда Аттэнборо после более чем четырнадцатилетнего перерыва.
• «Парк юрского периода» заработал 914,7 млн. долларов в мировом кинопрокате и в течение четырёх с половиной лет до выхода «Титаника» оставался самым кассовым фильмом за всю историю кино.
• В сцене рождения динозавров в лаборатории по первоначальному замыслу из яйца вылуплялись трицератопсы, которых позднее заменили на велосирапторов.
• Первый фильм, использовавший формат звука DTS – Digital Surround Sound.
• Многие мелкие ошибки и неточности подправлялись с помощью компьютерной графики. В некоторых случаях дублёры и каскадёры были сделаны более походящими на актёров, а в одной из сцен был полностью добавлен автомобиль Ford Explorer.
• Рёв тираннозавра состоял из соединённых вместе голосов слонёнка, тигра и аллигатора, а для его дыхания были использованы звуки выдыхания воздуха китом.
• Режиссёр Стивен Спилберг был настолько уверен в коммерческом успехе «Парка Юрского периода», что он ещё до окончания работы над фильмом приступил к работе над своим следующим проектом, «Списком Шиндлера» (1994), поручив полностью пост-продакшн фильма Джорджу Лукасу.
• Роль доктора Хэммонда предлагалась Шону Коннери.
• Сцена с рапторами в кухне снималась в день рождения Джозефа Мацелло. По ошибке во время одного из дублей актёр налетел на раптора, получив при этом несколько лёгких ушибов и царапин.
• Съёмки картины завершились за 12 дней до запланированной даты, полностью уложившись в бюджет.
• Для сцены, где тираннозавр выхватывает динозавра из стаи галлимимусов и пожирает его, был использован звук собаки, трясущей игрушку в своей пасти.
• Чтобы создать видимость беспилотного автомобиля, движущегося с помощью электроэнергии по рельсу, использовалось скрытое управление, установленное сзади каждой из машин. Водитель был спрятан под брезентом, а для того, чтобы он мог видеть дорогу и происходящее впереди, существовал специальный экран, изображение на который поступало с двух небольших камер. Одна из них была установлена на панели перед рулевым колесом, а вторая на переднем бампере.
• Продюсер фильма Джеральд Р.Молен появляется в камео в качестве доктора Герри Хардинга, которого главные герои встречают в начале экскурсии рядом с больным трицератопсом.
• В кадре, где показываются сувениры, посвящённые будущему «Парку юрского периода» можно заметить книгу «The Making of Jurassic Park» – «Создание Парка Юрского периода» Дона Шея и Джоди Данкан. Эта книга в действительности существовала, и в ней рассказывалось о работе над фильмом.
• Роль Малдона (охотника, отвечающего за безопасность в парке) могла достаться Брайану Коксу.
• Необычное ружье, которое использует Малдон это Franchi SPAS 12 итальянского производства.
• Заголовки газет, лежащих на холодильнике в трейлере доктора Гранта: «Пришельцы из космоса украли моё лицо» («Space Aliens Stole My Face») и «Динозавры на Марсе!» («Dinosaurs On Mars!»).
• Перед началом экскурсии по парку Тим в беседе с доктором Грантом упоминает Роберта Бэккера и его книгу о динозаврах. Палеонтолог Роберт Бэккер был одним из научных консультантов фильма.
• Все многочисленные сувениры с эмблемой Парка юрского периода (футболки, игрушки, фляжки, упаковки и многое другое), которые можно увидеть в фильме, существовали в действительности и использовались в рекламной кампании проекта.
• После участия в съёмках картины у Арианы Ричардс появился настолько сильный интерес к динозаврам, что следующим летом она принимала активное участие в раскопках окаменелостей динозавров в Монтане, проводимых профессоров Джеком Хорнером, который был главным научным консультантом «Парка юрского периода».
• Аниматронная модель тираннозавра в полный рост весила около 6 тонн и была ростом чуть больше 6 метров при длине в 12 метров. Во время съёмок первой атаки тираннозавра, которая происходила в сильный ливень и снималась на закрытой съёмочной площадке, резина, покрывавшая модель, впитала в себя большое количество воды, сделав её ещё более тяжёлой и практически неуправляемой. Обслуживающему персоналу пришлось работать, не покладая рук всю ночь, чтобы высушить тираннозавра. В конечном счете, было принято решение сконструировать специальную платформу над тираннозавром вне поля видимости камеры, которая бы удерживала льющиеся потоки воды.
• Плюющиеся ядовитой слюной дилофозавры в реальности были значительно больше и не обладали такой редкой способностью. Их размеры были уменьшены ради того, чтобы неискушённые зрители не перепутали их с рапторами.
• Несмотря на название фильма, большинство показанных в нём динозавров существовали в меловом периоде мезозойской эры, а не в предшествующем ему юрском.
• Стивен Спилберг настоял на том, чтобы рапторы были ростом около трёх метров, хотя на тот момент о существовании столь крупных разновидностей не было известно. Уже во время съёмок фильма при раскопках окаменелостей динозавров были обнаружены особи рапторов трёхметрового роста, получившие название Ютарапторов.
• В первоначальном варианте сценария персонажи Дженнаро и Малкольма были объединены в один, а Малдон оставался в живых. В книге Майкла Крайтона Малкольм и доктор Хаммонд погибали, хотя первый из них затем чудесным образом воскресал в её продолжении, объясняя этот факт тем, что «врачи проделали отличную работу».
• Когда тираннозавр атаковал машину с Лекс и Тимом внутри, по сценарию стекло не должно было разбиваться, и поэтому испуганные крики детей в этот момент были абсолютно натуральными.

Свернуть
MediaInfo

Общее
Уникальный идентификатор : 247717669885519321465469025906694755506 (0xBA5CB014E1D091BB9CB20AEDA14314B2)
Полное имя : C:\Users\Домашний\Desktop\Jurassic Park 1-3[nnt]\Jurassic Park.1993.BDRip.1080p.[nntt].mkv
Формат : Matroska
Размер файла : 4,37 Гбайт
Продолжительность : 2 ч. 6 м.
Общий поток : 4942 Кбит/сек
Дата кодирования : UTC 2011-10-30 07:07:09
Программа кодирования : mkvmerge v4.0.0 ('The Stars were mine') сборка от Jun 6 2010 16:18:42
Библиотека кодирования : libebml v1.0.0 + libmatroska v1.0.0

Видео
Идентификатор : 1
Формат : AVC
Формат/Информация : Advanced Video Codec
Профиль формата : High@L4.1
Параметр CABAC формата : Да
Параметр ReFrames формата : 4 кадры
Идентификатор кодека : V_MPEG4/ISO/AVC
Продолжительность : 2 ч. 6 м.
Битрейт : 4495 Кбит/сек
Ширина : 1920 пикс.
Высота : 1040 пикс.
Соотношение сторон : 16:9
Частота кадров : 23,976 кадр/сек
Цветовое пространство : YUV
Подвыборка цветности : 4:2:0
Битовая глубина : 8 бит
Тип развёртки : Прогрессивная
Бит/(Пиксели*Кадры) : 0.094
Размер потока : 3,89 Гбайт (89%)
Библиотека кодирования : x264 core 119 r2106 07efeb4
Настройки программы : cabac=1 / ref=4 / deblock=1:0:0 / analyse=0x3:0x133 / me=umh / subme=10 / psy=1 / psy_rd=1.00:0.10 / mixed_ref=1 / me_range=32 / chroma_me=1 / trellis=2 / 8x8dct=1 / cqm=0 / deadzone=21,11 / fast_pskip=0 / chroma_qp_offset=-3 / threads=12 / sliced_threads=0 / nr=0 / decimate=1 / interlaced=0 / bluray_compat=0 / constrained_intra=0 / bframes=5 / b_pyramid=2 / b_adapt=2 / b_bias=0 / direct=3 / weightb=1 / open_gop=0 / weightp=2 / keyint=240 / keyint_min=24 / scenecut=40 / intra_refresh=0 / rc_lookahead=60 / rc=2pass / mbtree=1 / bitrate=4495 / ratetol=1.0 / qcomp=0.60 / qpmin=0 / qpmax=69 / qpstep=4 / cplxblur=20.0 / qblur=0.5 / ip_ratio=1.40 / aq=1:1.00
Язык : English

Аудио
Идентификатор : 2
Формат : AC-3
Формат/Информация : Audio Coding 3
Расширение режима : CM (complete main)
Идентификатор кодека : A_AC3
Продолжительность : 2 ч. 6 м.
Вид битрейта : Постоянный
Битрейт : 448 Кбит/сек
Канал(ы) : 6 канала(ов)
Расположение каналов : Front: L C R, Side: L R, LFE
Частота : 48,0 КГц
Битовая глубина : 16 бит
Метод сжатия : С потерями
Размер потока : 406 Мбайт (9%)
Язык : Russian

Текст
Идентификатор : 3
Формат : UTF-8
Идентификатор кодека : S_TEXT/UTF8
Идентификатор кодека/Информация : UTF-8 Plain Text
Язык : English

Меню
00:00:00.000 : :Chapter 01
00:05:19.819 : :Chapter 02
00:10:14.739 : :Chapter 03
00:15:17.041 : :Chapter 04
00:19:33.213 : :Chapter 05
00:23:46.800 : :Chapter 06
00:31:40.148 : :Chapter 07
00:37:59.193 : :Chapter 08
00:40:26.674 : :Chapter 09
00:55:28.033 : :Chapter 10
01:01:43.241 : :Chapter 11
01:10:44.114 : :Chapter 12
01:20:01.129 : :Chapter 13
01:34:03.971 : :Chapter 14
01:39:45.312 : :Chapter 15
01:43:43.175 : :Chapter 16
01:47:56.845 : :Chapter 17
01:54:45.378 : :Chapter 18
01:58:04.410 : :Chapter 19
01:59:55.980 : :Chapter 20
02:06:36.338 : :Chapter 21


Свернуть
Награды и премии
Изображение
Свернуть

Скриншоты
Изображение
Изображение
Изображение
Изображение
Изображение

Свернуть
Свернуть

1997 - Парк Юрского периода 2: Затерянный мир / The Lost World: Jurassic Park

Изображение

Парк Юрского периода 2: Затерянный мир

«Но все-таки кто-то выжил.»

Изображение

Год выпуска: 1997
Страна: Изображение США; Universal Pictures
Жанр: Фантастика, боевик, приключения, семейный
Продолжительность: 02:08:40
Перевод: Профессиональный (многоголосый закадровый)
Cубтитры: Английские

Режиссёр: Стивен Спилберг / Steven Spielberg

В ролях: Джефф Голдблюм, Джулианна Мур, Пит Постлетуэйт, Ричард Аттенборо, Винс Вон, Арлисс Ховард, Ванесса Ли Честер, Петер Стормаре, Харви Джейсон, Ричард Шифф

Описание: События этого фильма разворачиваются через четыре года после того, что произошло в «Парке Юрского периода». На близлежащем острове динозавры выжили и адаптировались к дикой природе. Но вот находится Некто, кто хочет перевезти их на материк и заработать на этом, не понимая, какими могут быть последствия, и посылает на остров своих людей.

Джон Хэммонд, который потерял контроль над своей компанией, считает, что у него появился шанс исправить свои прошлые ошибки. Он, в свою очередь, снаряжает экспедицию во главе с Яном Малкольмом, чтобы появиться там до высадки наемников.

В результате происходящих событий две эти конфликтующие группы вынуждены объединиться перед лицом смертельной опасности. И, как потом выясняется, времени им отпущено совсем немного.


Качество: BDRip 1080p
Формат: MKV

Видео: 1920x1040 (16:9), 23.976 fps, 4415 kbps
Аудио : AC-3, 448 Кбит/сек, 6 канала(ов), 48,0 КГц
Раздача: Изображение

Изображение

Изображение

MediaInfo

Общее
Уникальный идентификатор : 185794929969972085607862014188174578934 (0x8BC6CD4A43F063B798D38F72CABA14F6)
Полное имя : C:\Users\Домашний\Desktop\Jurassic Park 1-3[nnt]\The Lost World.Jurassic.Park.1997.BDRip.1080p.[nntt].mkv
Формат : Matroska
Размер файла : 4,37 Гбайт
Продолжительность : 2 ч. 8 м.
Общий поток : 4862 Кбит/сек
Дата кодирования : UTC 2011-10-31 07:54:19
Программа кодирования : mkvmerge v4.0.0 ('The Stars were mine') сборка от Jun 6 2010 16:18:42
Библиотека кодирования : libebml v1.0.0 + libmatroska v1.0.0

Видео
Идентификатор : 1
Формат : AVC
Формат/Информация : Advanced Video Codec
Профиль формата : High@L4.1
Параметр CABAC формата : Да
Параметр ReFrames формата : 4 кадры
Идентификатор кодека : V_MPEG4/ISO/AVC
Продолжительность : 2 ч. 8 м.
Битрейт : 4415 Кбит/сек
Ширина : 1920 пикс.
Высота : 1040 пикс.
Соотношение сторон : 16:9
Частота кадров : 23,976 кадр/сек
Цветовое пространство : YUV
Подвыборка цветности : 4:2:0
Битовая глубина : 8 бит
Тип развёртки : Прогрессивная
Бит/(Пиксели*Кадры) : 0.092
Размер потока : 3,88 Гбайт (89%)
Библиотека кодирования : x264 core 119 r2106 07efeb4
Настройки программы : cabac=1 / ref=4 / deblock=1:0:0 / analyse=0x3:0x133 / me=umh / subme=10 / psy=1 / psy_rd=1.00:0.10 / mixed_ref=1 / me_range=32 / chroma_me=1 / trellis=2 / 8x8dct=1 / cqm=0 / deadzone=21,11 / fast_pskip=0 / chroma_qp_offset=-3 / threads=12 / sliced_threads=0 / nr=0 / decimate=1 / interlaced=0 / bluray_compat=0 / constrained_intra=0 / bframes=5 / b_pyramid=2 / b_adapt=2 / b_bias=0 / direct=3 / weightb=1 / open_gop=0 / weightp=2 / keyint=240 / keyint_min=24 / scenecut=40 / intra_refresh=0 / rc_lookahead=60 / rc=2pass / mbtree=1 / bitrate=4415 / ratetol=1.0 / qcomp=0.60 / qpmin=0 / qpmax=69 / qpstep=4 / cplxblur=20.0 / qblur=0.5 / ip_ratio=1.40 / aq=1:1.00
Язык : English

Аудио
Идентификатор : 2
Формат : AC-3
Формат/Информация : Audio Coding 3
Расширение режима : CM (complete main)
Идентификатор кодека : A_AC3
Продолжительность : 2 ч. 8 м.
Вид битрейта : Постоянный
Битрейт : 448 Кбит/сек
Канал(ы) : 6 канала(ов)
Расположение каналов : Front: L C R, Side: L R, LFE
Частота : 48,0 КГц
Битовая глубина : 16 бит
Метод сжатия : С потерями
Размер потока : 412 Мбайт (9%)
Язык : Russian

Текст
Идентификатор : 3
Формат : UTF-8
Идентификатор кодека : S_TEXT/UTF8
Идентификатор кодека/Информация : UTF-8 Plain Text
Язык : English

Меню
00:00:00.000 : :Chapter 01
00:04:13.586 : :Chapter 02
00:08:38.309 : :Chapter 03
00:16:11.929 : :Chapter 04
00:21:43.135 : :Chapter 05
00:33:22.458 : :Chapter 06
00:41:48.797 : :Chapter 07
00:47:58.000 : :Chapter 08
00:53:40.592 : :Chapter 09
01:04:46.674 : :Chapter 10
01:12:59.708 : :Chapter 11
01:20:47.884 : :Chapter 12
01:26:18.965 : :Chapter 13
01:31:53.382 : :Chapter 14
01:42:23.637 : :Chapter 15
01:50:52.687 : :Chapter 16
01:52:13.935 : :Chapter 17
01:58:10.875 : :Chapter 18
01:59:51.601 : :Chapter 19
02:01:56.434 : :Chapter 20
02:08:40.087 : :Chapter 21


Свернуть
Награды и премии
Изображение
Свернуть

Скриншоты
Изображение
Изображение
Изображение
Изображение
Изображение

Свернуть
Свернуть

2001 - Парк Юрского периода 3 / Jurassic Park III

Парк Юрского периода 3

«With every sound, with every heartbeat, there will be more to fear than ever before»

Изображение

Год выпуска: 2001
Страна: Изображение США; Universal Pictures
Жанр: Фантастика, боевик, приключения, семейный
Продолжительность: 01:32:21
Перевод: Профессиональный (полное дублирование)
Cубтитры: Английские

Режиссёр: Джо Джонстон / Joe Johnston

В ролях: Сэм Нил, Уильям Х. Мэйси, Теа Леони, Алессандро Нивола, Тревор Морган, Майкл Джитер, Джон Дил, Брюс А. Янг, Лора Дерн, Тейлор Николс

Описание: Герой Сэма Нила, палеонтолог Алан Грант, принимает предложение состоятельного предпринимателя совершить обзорную экскурсию над печально знаменитым островом Сорна на специально нанятом самолете. Мог ли доктор Грант предполагать, что страшная, непредвиденная катастрофа снова заставит его столкнуться со свирепыми плотоядными существами из прошлого?!

Более того, с момента ужасных событий картины «Парк Юрского периода» динозавры стали хитрее, сильнее и несоизмеримо опасней. Начинается новая, стремительная и жуткая гонка на выживание, в сравнении с которой все прошлые похождения доктора Гранта — лишь детские игрушки!


Качество: BDRip 1080p
Формат: MKV

Видео: 1920x1040 (16:9), 23.976 fps, 6327 kbps
Аудио : AC-3, 448 Кбит/сек, 6 канала(ов), 48,0 КГц
Раздача: Изображение

Изображение

Изображение
Знаете ли Вы что....

Изображение
Изображение

• Стивен Спилберг получил 20% от кассовых сборов фильма.
• Режиссёр Джо Джонстон выражал большое желание поработать над сиквелом феноменально успешного «Парка Юрского периода» (1993), но Стивен Спилберг не отступил от своего намерения самому заняться его производством, пообещав ему взамен место режиссёра третьего фильма.
• В самой первой рабочей заготовке сюжета, задуманного Стивеном Спилбергом, главным героем становился Алана Грант, проживший восемь лет на острове, наблюдая за популяцией динозавров.
• Основная рабочая версия сценария развивалась вокруг сбежавшего со второго острова летающего птеранодона, вызвавшего серию загадочных убийств на материке. За расследование принимался доктор Алан Грант вместе с рядом других персонажей, среди которых были богатый бизнесмен Пол Роби, его 12-летний сын Майлс, Билли Бреннан, натуралистка Симона и крутой военный эксперт. Группа Гранта прослеживала путь птерозавра вплоть до самого острова и терпела там аварию, а в это время на материке проходило параллельное расследование. Были изготовлены уже съёмочные площадки, костюмы и прочий реквизит, но за пять недель до запланированного начала съёмок режиссёр Джо Джонстон полностью забраковал этот сценарий, отдав предпочтение предложенной Дэвидом Коппом идее «спасательной миссии» на остров.
• Съёмки начались 30 августа 2000 года без готового окончательного варианта сценария, который неоднократно переделывался на ходу. Работа шла на Гавайских островах Оаху и Молокаи и в Калифорнии, завершившись 20 января 2001 года.
• Джефф Голдблюм должен был вернуться в роли доктора Йена Малкольма, но через несколько дней после начала съёмок повредил ногу и выбыл из проекта, заявив, что его персонаж не играет такой уж большой роли.
• Аниматронная модель спинозавра была самой большой из созданных на тот момент. Она весила 12 тонн и полностью управлялась гидравликой, что позволяло оперировать ей полностью погружённой в воду.
• Коричневый фургон доктора Алана Гранта с логотипами музея геологии и палеонтологии (The Museum of Rockies) и университета штата Монтана полностью копирует машину палеонтолога Джеймса Хорнера, научного консультанта трёх фильмов «Парка Юрского периода» и на котором основан этот персонаж. Поиски подобного фургона оказались весьма трудоёмким занятием и потребовали немало времени.
• Чтобы изобразить помёт спинозавра было использовано более 900 литров овсянки.
• Тревор Морган, который играет Эрика Кирби, ранее сыграл одного из детей в другом фильме, связанном с динозаврами, «Невероятные приключения динозаврика Барни» (1998). Фрагмент из этого фильма также использован в одной из сцен.
• Сэм Нил в своём контракте заложил требование того, чтобы премьера фильма в Австралии и Океании прошла в его родном городе Данидин в Новой Зеландии.
• Оригинальный сценарий и рисованные наброски представляли в качестве основного «злодея» в фильме и главной угрозы героям динозавра барионикса, который является близким родичем спинозавра и мало отличается по внешнему виду. Барионикс лишь чуть меньше по размерам и не имел такого ярко выраженного гребня на спине.
• Роль Купера могла достаться Стеллану Сарсгаарду, Стиву Бушеми и Тони Шэлхоубу.
• Автор оригинальной идеи «Парка юрского периода» Майкл Крайтон несколько дней провёл в напряжённой совместной работе со сценаристами в режиме «мозгового штурма», пытаясь подобрать подходящий сюжет, но покинул группу, так и не найдя ничего удовлетворительного.
• Фамилия персонажа Юдески в первоначальном варианте сценария была Ордески.
• Персонаж Купера в некоторой степени основан на герое выпущенной в 1999 году видеоигры «Dino Crisis», наёмнике также по имени Купер.
• Выходу фильма сопутствовала новелизация, которую написал американским писатель Скотт Чинчин. Немного позднее он же выпустил ещё три самостоятельные книги, связанные с сюжетом картины. Первая из них, «Приключения в Парке Юрского периода: Спасшийся», рассказывала о восьминедельном пребывании Эрика на острове до прибытия спасательной группы. Во второй «Приключения в Парке Юрского периода: Жертва» речь шла о группе подростков, самостоятельно отправившихся на остров и которых пытаются спасти доктор Грант вместе с Эриком. Третья и заключительная книга «Приключения в Парке Юрского периода: Летуны» рассказывает об их столкновении в парке развлечений во Флориде с летающими птеранодонами.

Свернуть
MediaInfo

Общее
Уникальный идентификатор : 251907983440680824340921366518159936960 (0xBD83B67D973450FB934024F282AC8DC0)
Полное имя : C:\Users\Домашний\Desktop\Jurassic Park 1-3[nnt]\Jurassic Park.III.2001.BDRip.1080p.[nntt].mkv
Формат : Matroska
Размер файла : 4,37 Гбайт
Продолжительность : 1 ч. 32 м.
Общий поток : 6775 Кбит/сек
Дата кодирования : UTC 2011-10-31 20:33:19
Программа кодирования : mkvmerge v4.0.0 ('The Stars were mine') сборка от Jun 6 2010 16:18:42
Библиотека кодирования : libebml v1.0.0 + libmatroska v1.0.0

Видео
Идентификатор : 1
Формат : AVC
Формат/Информация : Advanced Video Codec
Профиль формата : High@L4.1
Параметр CABAC формата : Да
Параметр ReFrames формата : 4 кадры
Идентификатор кодека : V_MPEG4/ISO/AVC
Продолжительность : 1 ч. 32 м.
Битрейт : 6327 Кбит/сек
Ширина : 1920 пикс.
Высота : 1040 пикс.
Соотношение сторон : 16:9
Частота кадров : 23,976 кадр/сек
Цветовое пространство : YUV
Подвыборка цветности : 4:2:0
Битовая глубина : 8 бит
Тип развёртки : Прогрессивная
Бит/(Пиксели*Кадры) : 0.132
Размер потока : 3,99 Гбайт (91%)
Библиотека кодирования : x264 core 119 r2106 07efeb4
Настройки программы : cabac=1 / ref=4 / deblock=1:0:0 / analyse=0x3:0x133 / me=umh / subme=10 / psy=1 / psy_rd=1.00:0.10 / mixed_ref=1 / me_range=32 / chroma_me=1 / trellis=2 / 8x8dct=1 / cqm=0 / deadzone=21,11 / fast_pskip=0 / chroma_qp_offset=-3 / threads=12 / sliced_threads=0 / nr=0 / decimate=1 / interlaced=0 / bluray_compat=0 / constrained_intra=0 / bframes=5 / b_pyramid=2 / b_adapt=2 / b_bias=0 / direct=3 / weightb=1 / open_gop=0 / weightp=2 / keyint=240 / keyint_min=24 / scenecut=40 / intra_refresh=0 / rc_lookahead=60 / rc=2pass / mbtree=1 / bitrate=6327 / ratetol=1.0 / qcomp=0.60 / qpmin=0 / qpmax=69 / qpstep=4 / cplxblur=20.0 / qblur=0.5 / ip_ratio=1.40 / aq=1:1.00
Язык : English

Аудио
Идентификатор : 2
Формат : AC-3
Формат/Информация : Audio Coding 3
Расширение режима : CM (complete main)
Идентификатор кодека : A_AC3
Продолжительность : 1 ч. 32 м.
Вид битрейта : Постоянный
Битрейт : 448 Кбит/сек
Канал(ы) : 6 канала(ов)
Расположение каналов : Front: L C R, Side: L R, LFE
Частота : 48,0 КГц
Битовая глубина : 16 бит
Метод сжатия : С потерями
Размер потока : 296 Мбайт (7%)
Язык : Russian

Текст
Идентификатор : 3
Формат : UTF-8
Идентификатор кодека : S_TEXT/UTF8
Идентификатор кодека/Информация : UTF-8 Plain Text
Язык : English

Меню
00:00:00.000 : :Chapter 01
00:04:11.793 : :Chapter 02
00:12:43.721 : :Chapter 03
00:17:26.795 : :Chapter 04
00:19:56.737 : :Chapter 05
00:26:27.294 : :Chapter 06
00:27:35.695 : :Chapter 07
00:32:37.830 : :Chapter 08
00:36:13.045 : :Chapter 09
00:40:11.992 : :Chapter 10
00:44:32.211 : :Chapter 11
00:53:06.516 : :Chapter 12
00:56:48.613 : :Chapter 13
00:58:55.573 : :Chapter 14
01:03:00.693 : :Chapter 15
01:11:44.758 : :Chapter 16
01:14:53.322 : :Chapter 17
01:18:44.219 : :Chapter 18
01:21:29.801 : :Chapter 19
01:24:28.229 : :Chapter 20
01:32:12.485 : :Chapter 21


Свернуть
Награды и премии
Изображение
Свернуть

Скриншоты
Изображение
Изображение
Изображение
Изображение
Изображение

Свернуть
Свернуть
_________________
Изображение
Изображение
Не в сети
Профиль  
 Добавлено: 2011-12-28 11:39 (спустя 1 месяц 24 дня)
Аватара пользователя
Стаж: 8 лет 1 месяц
Возраст: 26
Сообщений: 132
Лайков: 1
а скорости прибавте плиз, а то совсем не качает!!!
Не в сети
Профиль  
 Добавлено: 2011-12-28 13:36 (спустя 1 час 57 минут)
Модератор релиз-группы
Аватара пользователя
Стаж: 9 лет 1 месяц
Возраст: 97
Сообщений: 11659
Спасибок: 6532
Лайков: 269

Статистика релиза:

Полного источника не было 56 минут
:-D
_________________
Изображение
Не в сети
Профиль  
 Добавлено: 2012-01-08 13:43 (спустя 11 дней)
Аватара пользователя
Стаж: 8 лет 1 месяц
Возраст: 25
Сообщений: 51
Перевод унылый ооочень =/
В сети
Профиль  
 Добавлено: 2013-01-14 18:00 (спустя 1 год)
Стаж: 8 лет 8 месяцев
Сообщений: 12
это вам не Гоблинский перевод :)
Не в сети
Профиль  
Начать новую темуОтветить на тему  [ Сообщений: 5 ] 
Вы не можете начинать темы
Вы не можете отвечать на сообщения
Вы не можете редактировать свои сообщения
Вы не можете удалять свои сообщения