Правила форума

  • В этом разделе создание новых тем Запрещено.
  • Для создания новых тем пользуйтесь Корневым разделом DVD и HD фильмы.
Начать новую темуОтветить на тему  [ Сообщений: 15 ] 
Торрент файл
Размер: 11.24 GB • Зарегистрирован: 3 года 6 месяцев • Статус: Проверено
Скачан: 756 раз • Желающих скачать: 0 • Поблагодарили: 196 раз
 Раздают: 0  |  0 KB/s  ]   Качают: 0  |  0 KB/s  ] 
 Полного источника не было 21 день 
Сообщения
 Добавлено: 2013-05-06 13:19
DVD Release Group
Аватара пользователя
Стаж: 7 лет 1 месяц
Сообщений: 3541
Спасибок: 246625
Лайков: 1016
Паркер

Parker


Изображение


Год выпуска: 2013
Страна: США
Жанр: Триллер, криминал
Продолжительность: 01:58:40
Перевод: Профессиональный (полное дублирование)
Субтитры: Русские, английские
Режиссер: Тейлор Хэкфорд
В ролях: Джейсон Стэйтем, Дженнифер Лопез, Майкл Чиклис, Уенделл Пирс, Клифтон Коллинз мл., Бобби Каннавале, Пэтти ЛюПон, Карлос Карраско, Мика А. Хауптман, Эмма Бут
Описание: Главный герой — профессиональный вор, руководствующийся собственным моральным кодексом, но способный запросто отправить на тот свет любого, кто перейдет ему дорогу.
Изображение
Sample:
http://sendfile.su/806482
Качество: BDRip 1080p
Формат: MKV
Видео кодек: H264
Аудио кодек: AC3, DTS
Видео: 1920x796 23.98fps 11.6Mbps
Аудио:
Audio Rus: 48kHz 6ch 448Kbps
Audio Eng: 48kHz 6ch 1510Kbps
"MediaInfo"
Формат : Matroska
Версия формата : Version 2
Размер файла : 11,2 Гбайт
Продолжительность : 1 ч. 58 м.
Общий поток : 13,6 Мбит/сек
Дата кодирования : UTC 2013-05-06 09:13:08
Программа кодирования : mkvmerge v5.2.0 ('I can't explain') built on Dec 18 2011 18:12:03
Библиотека кодирования : libebml v1.2.3 + libmatroska v1.3.0

Видео
Идентификатор : 1
Формат : AVC
Формат/Информация : Advanced Video Codec
Профиль формата : High@L4.1
Параметр CABAC формата : Да
Параметр ReFrames формата : 5 кадров
Идентификатор кодека : V_MPEG4/ISO/AVC
Продолжительность : 1 ч. 58 м.
Битрейт : 11,6 Мбит/сек
Ширина : 1920 пикселей
Высота : 796 пикселей
Соотношение сторон : 2,40:1
Частота кадров : 23,976 кадра/сек
Цветовое пространство : YUV
Субдискретизация насыщенности : 4:2:0
Битовая глубина : 8 бит
Тип развёртки : Прогрессивная
Бит/(Пиксели*Кадры) : 0.317
Размер потока : 9,39 Гбайт (84%)
Заголовок : Parker.2013.BluRay.1080p.DTS.x264-CHD
Библиотека кодирования : x264 core 125 r2208 d9d2288
Настройки программы : cabac=1 / ref=5 / deblock=1:-3:-3 / analyse=0x3:0x113 / me=umh / subme=10 / psy=1 / psy_rd=1.00:0.05 / mixed_ref=1 / me_range=32 / chroma_me=1 / trellis=2 / 8x8dct=1 / cqm=0 / deadzone=21,11 / fast_pskip=0 / chroma_qp_offset=-2 / threads=8 / lookahead_threads=1 / sliced_threads=0 / nr=0 / decimate=1 / interlaced=0 / bluray_compat=0 / constrained_intra=0 / bframes=5 / b_pyramid=2 / b_adapt=2 / b_bias=0 / direct=3 / weightb=1 / open_gop=0 / weightp=2 / keyint=250 / keyint_min=23 / scenecut=40 / intra_refresh=0 / rc=2pass / mbtree=0 / bitrate=11608 / ratetol=1.0 / qcomp=0.70 / qpmin=0 / qpmax=69 / qpstep=4 / cplxblur=20.0 / qblur=0.5 / ip_ratio=1.40 / pb_ratio=1.30 / aq=2:0.90
Язык : English
Default : Да
Forced : Да

Аудио #1
Идентификатор : 2
Формат : AC-3
Формат/Информация : Audio Coding 3
Расширение режима : CM (complete main)
Идентификатор кодека : A_AC3
Продолжительность : 1 ч. 58 м.
Вид битрейта : Постоянный
Битрейт : 448 Кбит/сек
Каналы : 6 каналов
Расположение каналов : Front: L C R, Side: L R, LFE
Частота : 48,0 КГц
Битовая глубина : 16 бит
Метод сжатия : С потерями
Размер потока : 380 Мбайт (3%)
Заголовок : DD 5.1 @ 448 kbps - Dub, R5
Язык : Russian
Default : Да
Forced : Да

Аудио #2
Идентификатор : 3
Формат : DTS
Формат/Информация : Digital Theater Systems
Идентификатор кодека : A_DTS
Продолжительность : 1 ч. 58 м.
Вид битрейта : Постоянный
Битрейт : 1510 Кбит/сек
Каналы : 6 каналов
Расположение каналов : Front: L C R, Side: L R, LFE
Частота : 48,0 КГц
Битовая глубина : 24 бит
Метод сжатия : С потерями
Размер потока : 1,25 Гбайт (11%)
Заголовок : DTS 5.1 @ 1536 kbps
Язык : English
Default : Нет
Forced : Нет

Текст #1
Идентификатор : 4
Формат : UTF-8
Идентификатор кодека : S_TEXT/UTF8
Идентификатор кодека/Информация : UTF-8 Plain Text
Заголовок : Voronine
Язык : Russian
Default : Нет
Forced : Нет

Текст #2
Идентификатор : 5
Формат : UTF-8
Идентификатор кодека : S_TEXT/UTF8
Идентификатор кодека/Информация : UTF-8 Plain Text
Язык : English
Default : Нет
Forced : Нет
Свернуть

"Скриншоты"
Изображение
Изображение
Изображение
Изображение
Свернуть

Раздача группы:
Изображение
Не в сети
Профиль  
 Добавлено: 2013-05-06 13:40 (спустя 21 минута)
Top-seeder
Аватара пользователя
Стаж: 8 лет 8 месяцев
Возраст: 26
Сообщений: 665
Спасибок: 2687
Лайков: 2
спасибо
Не в сети
Профиль  
 Добавлено: 2013-05-06 17:46 (спустя 4 часа)
Аватара пользователя
Стаж: 9 лет
Возраст: 29
Сообщений: 240
спс! вот только скорость не ахти :(
Не в сети
Профиль  
 Добавлено: 2013-05-06 18:43 (спустя 56 минут)
Top-seeder
Аватара пользователя
Стаж: 8 лет 8 месяцев
Возраст: 26
Сообщений: 665
Спасибок: 2687
Лайков: 2
rastor 6.21 GB - 271 KB/s

AndrBeb 53.51 GB - 5 MB/s

че за дела! где скорость?
Не в сети
Профиль  
 Добавлено: 2013-05-06 18:52 (спустя 8 минут)
DVD Release Group
Аватара пользователя
Стаж: 7 лет 1 месяц
Сообщений: 3541
Спасибок: 246625
Лайков: 1016
Андрей
У меня одних Паркеров 5 раздач. И вообще у вас локальный трафик (вы в Нижнем - я в Уфе), у меня внешка не более 1мб/сек - отдача.
Не могу ничего поделать. Прошу прощения за неудобства.Изображение
Не в сети
Профиль  
 Добавлено: 2013-05-06 20:55 (спустя 2 часа 3 минуты)
Top-seeder
Аватара пользователя
Стаж: 8 лет 8 месяцев
Возраст: 26
Сообщений: 665
Спасибок: 2687
Лайков: 2
rastor
ну с такими извинениями, ладно! прощаю)
AndrBeb 101.85 GB
помогаю раздавать)
Не в сети
Профиль  
 Добавлено: 2013-05-07 00:10 (спустя 3 часа)
Аватара пользователя
Стаж: 8 лет 9 месяцев
Сообщений: 1170
Спасибок: 1294
Лайков: 7
опять он :kav_boy:
Не в сети
Профиль  
 Добавлено: 2013-05-07 00:50 (спустя 40 минут)
Top-seeder
Аватара пользователя
Стаж: 8 лет 8 месяцев
Возраст: 26
Сообщений: 665
Спасибок: 2687
Лайков: 2
фильм редкостное ггггггггггггг :ze_le_ny:
Не в сети
Профиль  
 Добавлено: 2013-05-07 07:54 (спустя 7 часов)
Аватара пользователя
Стаж: 9 лет
Возраст: 29
Сообщений: 240
а мне понравился фильм :)
Не в сети
Профиль  
 Добавлено: 2013-05-07 10:14 (спустя 2 часа 19 минут)
Аватара пользователя
Стаж: 7 лет
Сообщений: 107
Лайков: 1
Надоели одни и те же рожи!
Не в сети
Профиль  
 Добавлено: 2013-05-12 22:51 (спустя 5 дней)
Стаж: 5 лет 3 месяца
Сообщений: 150
Лайков: 1
То что фильм-ГГГГГГГГГГГ! Чистая правда! :ze_le_ny:
Не в сети
Профиль  
 Добавлено: 2013-05-15 21:13 (спустя 2 дня 22 часа)
Аватара пользователя
Стаж: 7 лет 4 месяца
Возраст: 34
Сообщений: 241
Спасибок: 1
Лайков: 2
Нечего соидет . :hi_hi_hi:
Не в сети
Профиль  
 Добавлено: 2013-05-21 11:31 (спустя 5 дней)
Аватара пользователя
Стаж: 8 лет
Сообщений: 140
Спасибок: 51
спасибо
_________________
Изображение 6 мB/s Изображение 600 kB/s
Изображение
Не в сети
Профиль  
 Добавлено: 2013-05-25 11:54 (спустя 4 дня)
Кинокомментатор
Аватара пользователя
Стаж: 9 лет
Сообщений: 1331
Лайков: 52
фильм как и все со Стетхемом) как и боевички:) обычный стандартный не плохой такой фильмец!) смотреть ли? если вы себе представляете что за кино, и вам нравились предыдущие, то смотреть!)
6/10
_________________
Я ВКонтакте
Не в сети
Профиль  
 Добавлено: 2016-05-18 18:27 (спустя 2 года 11 месяцев)
Стаж: 5 лет 11 месяцев
Сообщений: 29
Лайков: 1
Ребята, скорости :bra_vo:
Не в сети
Профиль  
Начать новую темуОтветить на тему  [ Сообщений: 15 ] 
Вы не можете начинать темы
Вы не можете отвечать на сообщения
Вы не можете редактировать свои сообщения
Вы не можете удалять свои сообщения