Правила форума

  • В этом разделе создание новых тем Запрещено.
  • Для создания новых тем пользуйтесь Корневым разделом DVD и HD фильмы.
Начать новую темуОтветить на тему  [ 1 сообщение ] 
Торрент файл
Размер: 4.29 GB • Зарегистрирован: 3 года 7 месяцев • Статус: Проверено
Скачан: 13 раз • Желающих скачать: 0 • Поблагодарили: 8 раз
 Раздают: 0  |  0 KB/s  ]   Качают: 0  |  0 KB/s  ] 
 Полного источника не было 3 года 2 месяца 
Сообщения
 Добавлено: 2013-04-15 02:52
Аватара пользователя
Стаж: 7 лет 2 месяца
Сообщений: 7167
Спасибок: 82010
Лайков: 2438
Парковка / P2

Изображение


Год выпуска: 2007
Страна: США
Слоган: «Новый уровень страха»
Жанр: ужасы, триллер
Продолжительность: 01:37:36
Перевод: Профессиональный (дубляж) + Оригинальная звуковая дорожка
Субтитры: Английские

Режиссёр: Франк Халфун
В ролях: Уэс Бентли, Рэйчел Николс, Саймон Рейнольдс, Филип Акин, Стефани Мур, Миранда Эдвардс, Пол Сун-Хюнг Ли, Грэйс Линн Кунг, Филип Уильямс
Описание: В канун рождества, молодая женщина Анжела Бриджес оказывается запертой на общественной парковке. Сначала, ей кажется, что это небольшие проблемы с электроснабжением, вызванные разгаром торжества, но позже она понимает, что стала жертвой маньяка-охранника, решившего отпраздновать Рождество на свой манер.

Теперь ей предстоит неравная схватка с вооруженным и хорошо подготовленным мужчиной, в которой победа будет явно не на ее стороне. Но, как знать, может страх придаст ей мужества и сил противостоять злоумышленнику.


Качество: BDRip 720p
Формат: MKV
Видео кодек: H264 (AVC)
Аудио кодек: AC3 (Dolby Digital)
Видео: 1 280x544, 23.976 fps, 5 400 Kbps
Аудио #1: 48.0 KHz, 6 ch, 448 Kbps [Профессиональный (дубляж)]
Аудио #2: 48.0 KHz, 6 ch, 448 Kbps [Оригинальная звуковая дорожка]
Субтитры: Английские
Изображение
Скриншоты
Изображение
Изображение
Изображение
Свернуть
Знаете ли Вы, что...
Фильм был снят за два месяца, причем снимали только по ночам на настоящей подземной парковке в городе Торонто.
Свернуть
MI
General
Unique ID : 180849331515770106238563633254967223322 (0x880E5075E3EC4A18BC4EFAF91123241A)
Complete name : Парковка.2007.mkv
Format : Matroska
Format version : Version 2
File size : 4.29 GiB
Duration : 1h 37mn
Overall bit rate : 6 293 Kbps
Encoded date : UTC 2013-04-14 08:28:33
Writing application : mkvmerge v4.5.0 ('Speed of Light') сборка от Feb 1 2011 02:10:32
Writing library : libebml v1.2.0 + libmatroska v1.1.0

Video
ID : 1
Format : AVC
Format/Info : Advanced Video Codec
Format profile : High@L4.1
Format settings, CABAC : Yes
Format settings, ReFrames : 8 frames
Codec ID : V_MPEG4/ISO/AVC
Duration : 1h 37mn
Bit rate : 5 400 Kbps
Width : 1 280 pixels
Height : 544 pixels
Display aspect ratio : 2.35:1
Frame rate : 23.976 fps
Color space : YUV
Chroma subsampling : 4:2:0
Bit depth : 8 bits
Scan type : Progressive
Bits/(Pixel*Frame) : 0.323
Stream size : 3.59 GiB (84%)
Title : Parkovka.2007.x264.BDRip(720p)
Writing library : x264 core 130 r2273 b3065e6
Encoding settings : cabac=1 / ref=8 / deblock=1:-2:-2 / analyse=0x3:0x133 / me=umh / subme=11 / psy=1 / psy_rd=1.00:0.00 / mixed_ref=1 / me_range=48 / chroma_me=1 / trellis=2 / 8x8dct=1 / cqm=0 / deadzone=21,11 / fast_pskip=0 / chroma_qp_offset=-2 / threads=3 / lookahead_threads=1 / sliced_threads=0 / nr=0 / decimate=1 / interlaced=0 / bluray_compat=0 / constrained_intra=0 / bframes=8 / b_pyramid=2 / b_adapt=2 / b_bias=0 / direct=3 / weightb=1 / open_gop=0 / weightp=2 / keyint=240 / keyint_min=22 / scenecut=40 / intra_refresh=0 / rc=2pass / mbtree=0 / bitrate=5400 / ratetol=1.0 / qcomp=0.60 / qpmin=10 / qpmax=51 / qpstep=4 / cplxblur=20.0 / qblur=0.5 / ip_ratio=1.40 / pb_ratio=1.30 / aq=2:1.00
Language : English
Default : Yes
Forced : No

Audio #1
ID : 2
Format : AC-3
Format/Info : Audio Coding 3
Mode extension : CM (complete main)
Format settings, Endianness : Big
Codec ID : A_AC3
Duration : 1h 37mn
Bit rate mode : Constant
Bit rate : 448 Kbps
Channel(s) : 6 channels
Channel positions : Front: L C R, Side: L R, LFE
Sampling rate : 48.0 KHz
Bit depth : 16 bits
Compression mode : Lossy
Delay relative to video : 1s 0ms
Stream size : 313 MiB (7%)
Title : Дубляж
Language : Russian
Default : Yes
Forced : No

Audio #2
ID : 3
Format : AC-3
Format/Info : Audio Coding 3
Mode extension : CM (complete main)
Format settings, Endianness : Big
Codec ID : A_AC3
Duration : 1h 37mn
Bit rate mode : Constant
Bit rate : 448 Kbps
Channel(s) : 6 channels
Channel positions : Front: L C R, Side: L R, LFE
Sampling rate : 48.0 KHz
Bit depth : 16 bits
Compression mode : Lossy
Stream size : 313 MiB (7%)
Title : Английский
Language : English
Default : No
Forced : No

Text
ID : 4
Format : UTF-8
Codec ID : S_TEXT/UTF8
Codec ID/Info : UTF-8 Plain Text
Title : Английские
Language : English
Default : Yes
Forced : No


Свернуть
 rotametr нравится это.
Не в сети
Профиль  
Начать новую темуОтветить на тему  [ 1 сообщение ] 
Вы не можете начинать темы
Вы не можете отвечать на сообщения
Вы не можете редактировать свои сообщения
Вы не можете удалять свои сообщения