Правила форума

  • В этом разделе создание новых тем Запрещено.
  • Для создания новых тем пользуйтесь Корневым разделом DVD и HD фильмы.
Начать новую темуОтветить на тему  [ 1 сообщение ] 
Торрент файл
Размер: 9.72 GB • Зарегистрирован: 5 лет 5 месяцев • Статус: Проверено
Скачан: 47 раз • Желающих скачать: 0 • Поблагодарили: 9 раз
 Раздают: 0  |  0 KB/s  ]   Качают: 0  |  0 KB/s  ] 
 Полного источника не было 2 года 7 месяцев 
Сообщения
 Добавлено: 2011-07-03 18:22
Top-releaser
Аватара пользователя
Стаж: 6 лет 7 месяцев
Сообщений: 2078
Спасибок: 3229
Лайков: 9
Пароль "Рыба-меч" / Swordfish

Изображение

Год выпуска: 2001
Страна: США, Австралия
Жанр: боевик, триллер, криминал
Продолжительность: 01:39:15
Перевод: Профессиональный (полное дублирование)
Режиссёр: Доминик Сена
В ролях: Джон Траволта /John Travolta/, Хью Джекмэн /Hugh Jackman/, Хэлле Берри /Halle Berry/, Винни Джонс /Vinnie Jones/, Дон Чидл /Don Cheadle/, Сэм Шепард /Sam Shepard
Описание: Один из самых опасных шпионов в мире - харизматичный Гэбриэл Шир - работавший когда-то на ЦРУ, а ныне ставший гениальным преступником, задумывает украсть 9 миллиардов долларов из нелегальных правительственных фондов. Для этого ему нужны помощь суперхакера, способного взломать систему безопасности любой компьютерной сети. Таким умельцем является Стенли Джобсон, который недавно отсидел срок за взлом ФБР.
В результате Джобсон остался без гроша, без любимого занятия, а главное - без любимой дочери Холли. Гэбриэл и его очаровательная партнёрша Джинжер заманивают Стэнли в своё дерзкое предприятие, обещая хакеру то, от чего он не может отказаться - в обмен на выполненную работу он получит опекунство над дочерью и шанс начать новую жизнь.
Однако, взявшись за реализацию этой сложной и рискованной операции, Стэнли вдруг понимает, что он лишь пешка в большой игре…

«Log On. Hack In. Go Anywhere. Get Everything.»

ИзображениеИзображение
Бюджет: $102 000 000
Сборы в США: $69 772 969
Сборы в мире: $147 080 413

Раздача группы: Изображение

Качество: BDRip
Формат: MKV
Видео кодек: H.264
Аудио кодек: AC3 (Dolby Digital)
Видео: 1920x800 at 23.976 fps,@L4.1 x264, ~9,548 kbps
Аудио #1: Russian: 48 kHz, AC3 5.1 @ 384 Kbps - Дубляж
Аудио #2: Russian: 48 kHz, AC3 2.0 @ 224 Kbps - Многоголосый закадровый, OPT
Аудио #3: Russian: 48 kHz, AC3 5.1 @ 448 Kbps - Многоголосый закадровый, Киномания
Аудио #4: Russian: 48 kHz, AC3 5.1 @ 640 Kbps - Многоголосый закадровый, Карусель 1
Аудио #5: Russian: 48 kHz, AC3 5.1 @ 640 Kbps - Многоголосый закадровый, Карусель 2
Аудио #6: Russian: 48 kHz, AC3 5.1 @ 640 Kbps - Одноголосый закадровый, А.Гаврилов
Аудио #7: Russian: 48 kHz, AC3 5.1 @ 640 Kbps - Одноголосый закадровый, С.Визгунов
Аудио #8: English: 48 kHz, AC3 5.1 @ 640 Kbps - Original
Аудио #9: English: 48 kHz, AC3 2.0 @ 192 Kbps - Commentary by Director Dominic Sena
Субтитры: Russian, English, Italian, Spanish

Скриншоты
Изображение

Изображение

Изображение

Изображение
Свернуть

MediaInfo
General
Unique ID : 221761780226887658144816816616644447739 (0xA6D5C3EB175ED567B50B6E69A03A8DFB)
Complete name : N:\Пароль Рыба-меч\Swordfish.1080p.mkv
Format : Matroska
File size : 9.72 GiB
Duration : 1h 39mn
Overall bit rate : 14.0 Mbps
Movie name : Swordfish (2001)
Encoded date : UTC 2011-05-21 14:47:46
Writing application : mkvmerge v4.7.0 ('Just Like You Imagined') сборка от Apr 21 2011 01:13:14
Writing library : libebml v1.2.0 + libmatroska v1.1.0
Cover : Yes / Yes

Video
ID : 1
Format : AVC
Format/Info : Advanced Video Codec
Format profile : High@L4.1
Format settings, CABAC : Yes
Format settings, ReFrames : 5 frames
Codec ID : V_MPEG4/ISO/AVC
Duration : 1h 39mn
Bit rate : 9 548 Kbps
Width : 1 920 pixels
Height : 800 pixels
Display aspect ratio : 2.40:1
Frame rate : 23.976 fps
Color space : YUV
Chroma subsampling : 4:2:0
Bit depth : 8 bits
Scan type : Progressive
Bits/(Pixel*Frame) : 0.259
Stream size : 6.44 GiB (66%)
Writing library : x264 core 114 r1924 08d04a4
Encoding settings : cabac=1 / ref=5 / deblock=1:-2:-2 / analyse=0x3:0 / me=tesa / subme=10 / psy=1 / psy_rd=1.10:0.05 / mixed_ref=1 / me_range=48 / chroma_me=1 / trellis=2 / 8x8dct=1 / cqm=0 / deadzone=21,11 / fast_pskip=0 / chroma_qp_offset=-6 / threads=16 / sliced_threads=0 / nr=0 / decimate=1 / interlaced=0 / constrained_intra=0 / bframes=8 / b_pyramid=2 / b_adapt=2 / b_bias=0 / direct=3 / weightb=1 / open_gop=0 / weightp=2 / keyint=250 / keyint_min=24 / scenecut=50 / intra_refresh=0 / rc_lookahead=150 / rc=2pass / mbtree=1 / bitrate=9548 / ratetol=1.0 / qcomp=0.70 / qpmin=0 / qpmax=61 / qpstep=4 / cplxblur=20.0 / qblur=0.5 / vbv_maxrate=48000 / vbv_bufsize=40000 / nal_hrd=none / ip_ratio=1.40 / aq=1:0.90
Language : English

Audio #1
ID : 2
Format : AC-3
Format/Info : Audio Coding 3
Mode extension : CM (complete main)
Codec ID : A_AC3
Duration : 1h 39mn
Bit rate mode : Constant
Bit rate : 384 Kbps
Channel(s) : 6 channels
Channel positions : Front: L C R, Side: L R, LFE
Sampling rate : 48.0 KHz
Bit depth : 16 bits
Compression mode : Lossy
Stream size : 273 MiB (3%)
Title : AC3 5.1 @ 384 Kbps [Дубляж]
Language : Russian

Audio #2
ID : 3
Format : AC-3
Format/Info : Audio Coding 3
Mode extension : CM (complete main)
Codec ID : A_AC3
Duration : 1h 39mn
Bit rate mode : Constant
Bit rate : 224 Kbps
Channel(s) : 2 channels
Channel positions : Front: L R
Sampling rate : 48.0 KHz
Bit depth : 16 bits
Compression mode : Lossy
Stream size : 159 MiB (2%)
Title : AC3 2.0 @ 224 Kbps [Многоголосый закадровый, OPT]
Language : Russian

Audio #3
ID : 4
Format : AC-3
Format/Info : Audio Coding 3
Mode extension : CM (complete main)
Codec ID : A_AC3
Duration : 1h 39mn
Bit rate mode : Constant
Bit rate : 448 Kbps
Channel(s) : 6 channels
Channel positions : Front: L C R, Side: L R, LFE
Sampling rate : 48.0 KHz
Bit depth : 16 bits
Compression mode : Lossy
Stream size : 318 MiB (3%)
Title : AC3 5.1 @ 448 Kbps [Многоголосый закадровый, Киномания]
Language : Russian

Audio #4
ID : 5
Format : AC-3
Format/Info : Audio Coding 3
Mode extension : CM (complete main)
Codec ID : A_AC3
Duration : 1h 39mn
Bit rate mode : Constant
Bit rate : 640 Kbps
Channel(s) : 6 channels
Channel positions : Front: L C R, Side: L R, LFE
Sampling rate : 48.0 KHz
Bit depth : 16 bits
Compression mode : Lossy
Stream size : 454 MiB (5%)
Title : AC3 5.1 @ 640 Kbps [Многоголосый закадровый, Карусель 1]
Language : Russian

Audio #5
ID : 6
Format : AC-3
Format/Info : Audio Coding 3
Mode extension : CM (complete main)
Codec ID : A_AC3
Duration : 1h 39mn
Bit rate mode : Constant
Bit rate : 640 Kbps
Channel(s) : 6 channels
Channel positions : Front: L C R, Side: L R, LFE
Sampling rate : 48.0 KHz
Bit depth : 16 bits
Compression mode : Lossy
Stream size : 454 MiB (5%)
Title : AC3 5.1 @ 640 Kbps [Многоголосый закадровый, Карусель 2]
Language : Russian

Audio #6
ID : 7
Format : AC-3
Format/Info : Audio Coding 3
Mode extension : CM (complete main)
Codec ID : A_AC3
Duration : 1h 39mn
Bit rate mode : Constant
Bit rate : 640 Kbps
Channel(s) : 6 channels
Channel positions : Front: L C R, Side: L R, LFE
Sampling rate : 48.0 KHz
Bit depth : 16 bits
Compression mode : Lossy
Stream size : 454 MiB (5%)
Title : AC3 5.1 @ 640 Kbps [Одноголосый закадровый, А.Гаврилов]
Language : Russian

Audio #7
ID : 8
Format : AC-3
Format/Info : Audio Coding 3
Mode extension : CM (complete main)
Codec ID : A_AC3
Duration : 1h 39mn
Bit rate mode : Constant
Bit rate : 640 Kbps
Channel(s) : 6 channels
Channel positions : Front: L C R, Side: L R, LFE
Sampling rate : 48.0 KHz
Bit depth : 16 bits
Compression mode : Lossy
Stream size : 454 MiB (5%)
Title : AC3 5.1 @ 640 Kbps [Одноголосый закадровый, С.Визгунов]
Language : Russian

Audio #8
ID : 9
Format : AC-3
Format/Info : Audio Coding 3
Mode extension : CM (complete main)
Codec ID : A_AC3
Duration : 1h 39mn
Bit rate mode : Constant
Bit rate : 640 Kbps
Channel(s) : 6 channels
Channel positions : Front: L C R, Side: L R, LFE
Sampling rate : 48.0 KHz
Bit depth : 16 bits
Compression mode : Lossy
Stream size : 454 MiB (5%)
Title : AC3 5.1 @ 640 Kbps [Original]
Language : English

Audio #9
ID : 10
Format : AC-3
Format/Info : Audio Coding 3
Format profile : Dolby Digital
Mode extension : CM (complete main)
Codec ID : A_AC3
Duration : 1h 39mn
Bit rate mode : Constant
Bit rate : 192 Kbps
Channel(s) : 2 channels
Channel positions : Front: L R
Sampling rate : 48.0 KHz
Bit depth : 16 bits
Compression mode : Lossy
Stream size : 136 MiB (1%)
Title : AC3 2.0 @ 192 Kbps [ Feature commentary by Director Dominic Sena]
Language : English

Text #1
ID : 11
Format : UTF-8
Codec ID : S_TEXT/UTF8
Codec ID/Info : UTF-8 Plain Text
Title : №1
Language : Russian

Text #2
ID : 12
Format : UTF-8
Codec ID : S_TEXT/UTF8
Codec ID/Info : UTF-8 Plain Text
Title : №2
Language : Russian

Text #3
ID : 13
Format : UTF-8
Codec ID : S_TEXT/UTF8
Codec ID/Info : UTF-8 Plain Text
Title : №3
Language : Russian

Text #4
ID : 14
Format : UTF-8
Codec ID : S_TEXT/UTF8
Codec ID/Info : UTF-8 Plain Text
Title : №4
Language : Russian

Text #5
ID : 15
Format : UTF-8
Codec ID : S_TEXT/UTF8
Codec ID/Info : UTF-8 Plain Text
Title : for Kinomania
Language : Russian

Text #6
ID : 16
Format : UTF-8
Codec ID : S_TEXT/UTF8
Codec ID/Info : UTF-8 Plain Text
Language : English

Text #7
ID : 17
Format : VobSub
Muxing mode : zlib
Codec ID : S_VOBSUB
Codec ID/Info : The same subtitle format used on DVDs
Language : Russian

Text #8
ID : 18
Format : VobSub
Muxing mode : zlib
Codec ID : S_VOBSUB
Codec ID/Info : The same subtitle format used on DVDs
Language : Russian

Text #9
ID : 19
Format : VobSub
Muxing mode : zlib
Codec ID : S_VOBSUB
Codec ID/Info : The same subtitle format used on DVDs
Language : English

Text #10
ID : 20
Format : VobSub
Muxing mode : zlib
Codec ID : S_VOBSUB
Codec ID/Info : The same subtitle format used on DVDs
Language : Italian

Text #11
ID : 21
Format : VobSub
Muxing mode : zlib
Codec ID : S_VOBSUB
Codec ID/Info : The same subtitle format used on DVDs
Language : Spanish

Menu
00:00:00.000 : en:Cinematic Theory
00:04:03.743 : en:Explosively Wrong Move
00:08:12.033 : en:Interception at Lax
00:11:47.456 : en:Ginger Visits
00:15:07.489 : en:Parental Devotion
00:18:47.042 : en:Axl in the Box
00:21:58.275 : en:Gabriel's World
00:24:14.786 : en:Through the Looking...
00:25:50.090 : en:Nearly Gone in 60...
00:30:36.000 : en:Stan's Only Shot
00:34:01.289 : en:A Deal
00:37:44.262 : en:Holly's Ride
00:42:11.654 : en:Way Over His Head
00:46:48.305 : en:Ginger Off Guard
00:49:12.824 : en:Operation Swordfish
00:51:52.275 : en:Worm and a Rottweiler
00:55:27.324 : en:Hackstasy
00:58:32.509 : en:Hitting the Hit Squad
01:03:18.544 : en:Executed for Treason
01:05:53.616 : en:War Costs
01:09:19.989 : en:Bank Crash
01:11:11.433 : en:Daughter in Danger
01:15:24.895 : en:Ginger Snapped
01:20:09.095 : en:Misdirection
01:23:15.782 : en:Bus That Could Fly
01:26:55.960 : en:Stan's Ending
01:29:01.336 : en:Flashback
01:30:59.454 : en:Travel Partners
01:33:29.520 : en:End Credits
Свернуть
Не в сети
Профиль  
Начать новую темуОтветить на тему  [ 1 сообщение ] 
Вы не можете начинать темы
Вы не можете отвечать на сообщения
Вы не можете редактировать свои сообщения
Вы не можете удалять свои сообщения