Правила форума

  • В этом разделе создание новых тем Запрещено.
  • Для создания новых тем пользуйтесь Корневым разделом DVD и HD фильмы.
Начать новую темуОтветить на тему  [ 1 сообщение ] 
Торрент файл
Размер: 8.47 GB • Зарегистрирован: 5 лет 4 месяца • Статус: Проверено
Скачан: 301 раз • Желающих скачать: 0 • Поблагодарили: 59 раз
 Раздают: 0  |  0 KB/s  ]   Качают: 0  |  0 KB/s  ] 
 Полного источника не было 1 год 11 месяцев 
Сообщения
 Добавлено: 2011-07-24 17:03
Top-seeder
Аватара пользователя
Стаж: 9 лет
Сообщений: 1399
Спасибок: 28651
Лайков: 8
Изображение


Информация о фильме
Название: Пастырь
Оригинальное название: Priest
Год выхода: 2011
Жанр: ужасы, фантастика, боевик, триллер
Режиссер: Скотт Чарльз Стюарт
В ролях: Пол Беттани, Карл Урбан, Кэм Жиганде, Мэгги Кью, Лили Коллинз, Брэд Дуриф, Стивен Мойер, Кристофер Пламмер, Алан Дэйл, Медкен Эмик

О фильме:
Далекое будущее. Миром правят религия и церковь. Священник, нарушая все церковные запреты, пытается выследить банду вампиров, похитивших его племянницу. В поисках ему помогают шериф и монахиня.

Выпущено: США / Buckaroo Entertainment, Michael De Luca Productions, Screen Gems
Продолжительность: 01:27:27
Озвучивание: Дублированное [лицензия]

Файл
Формат: MKV
Качество: BDRip 1080p [CHD]
Видео: 11.5 mb/s, 1920x800
Аудио: Russian / Ukrainian: AC3, 448 kb/s (6 ch) / English: DTS, 1510 kb/s (6 ch)
Субтитры: Russian, English
Размер: 8.47 GB

Скриншоты
ИзображениеИзображениеИзображение
Свернуть
Mi
Общее
Уникальный идентификатор : 187483094590802905483276111312992306748 (0x8D0BEE3B668D93A9B525D49E20AB863C)
Полное имя : D:\Закачки\Пастырь (2011).mkv
Формат : Matroska
Размер файла : 8,47 Гбайт
Продолжительность : 1 ч. 27 м.
Общий поток : 13,9 Мбит/сек
Название фильма : Пастырь / Priest (2011) .....:::UNIONGANG:::.....
Дата кодирования : UTC 2011-07-24 09:17:30
Программа кодирования : mkvmerge v4.9.1 ('Ich will') сборка от Jul 11 2011 23:53:15
Библиотека кодирования : libebml v1.2.1 + libmatroska v1.1.1

Видео
Идентификатор : 1
Формат : AVC
Формат/Информация : Advanced Video Codec
Профиль формата : High@L4.1
Параметр CABAC формата : Да
Параметр ReFrames формата : 5 кадров
Параметры GOP формата : M=3, N=41
Идентификатор кодека : V_MPEG4/ISO/AVC
Продолжительность : 1 ч. 27 м.
Битрейт : 11,5 Мбит/сек
Ширина : 1920 пикс.
Высота : 800 пикс.
Соотношение сторон : 2,40:1
Частота кадров : 23,976 кадр/сек
Цветовое пространство : YUV
Подвыборка цветности : 4:2:0
Битовая глубина : 8 бит
Тип развёртки : Прогрессивная
Бит/(Пиксели*Кадры) : 0.311
Размер потока : 6,83 Гбайт (81%)
Заголовок : Priest.2011.BluRay.1080p.DTS.x264-CHD
Библиотека кодирования : x264 core 114 r1924 08d04a4
Настройки программы : cabac=1 / ref=5 / deblock=1:-3:-3 / analyse=0x3:0x113 / me=umh / subme=10 / psy=1 / psy_rd=1.05:0.10 / mixed_ref=1 / me_range=48 / chroma_me=1 / trellis=2 / 8x8dct=1 / cqm=2 / deadzone=21,11 / fast_pskip=0 / chroma_qp_offset=-2 / threads=8 / sliced_threads=0 / nr=0 / decimate=1 / interlaced=0 / constrained_intra=0 / bframes=6 / b_pyramid=2 / b_adapt=2 / b_bias=0 / direct=3 / weightb=1 / open_gop=0 / weightp=2 / keyint=250 / keyint_min=23 / scenecut=40 / intra_refresh=0 / rc_lookahead=60 / rc=2pass / mbtree=1 / bitrate=11453 / ratetol=1.0 / qcomp=0.70 / qpmin=1 / qpmax=63 / qpstep=4 / cplxblur=20.0 / qblur=0.5 / vbv_maxrate=40000 / vbv_bufsize=40000 / nal_hrd=none / ip_ratio=1.40 / aq=2:0.90
Язык : English

Аудио #1
Идентификатор : 2
Формат : AC-3
Формат/Информация : Audio Coding 3
Расширение режима : CM (complete main)
Идентификатор кодека : A_AC3
Продолжительность : 1 ч. 27 м.
Вид битрейта : Постоянный
Битрейт : 448 Кбит/сек
Каналы : 6 каналов
Расположение каналов : Front: L C R, Side: L R, LFE
Частота : 48,0 КГц
Битовая глубина : 16 бит
Метод сжатия : С потерями
Размер потока : 280 Мбайт (3%)
Заголовок : AC3 5.1 @ 448 kb/s [Russian DUB R5]
Язык : Russian

Аудио #2
Идентификатор : 3
Формат : AC-3
Формат/Информация : Audio Coding 3
Расширение режима : CM (complete main)
Идентификатор кодека : A_AC3
Продолжительность : 1 ч. 27 м.
Вид битрейта : Постоянный
Битрейт : 448 Кбит/сек
Каналы : 6 каналов
Расположение каналов : Front: L C R, Side: L R, LFE
Частота : 48,0 КГц
Битовая глубина : 16 бит
Метод сжатия : С потерями
Размер потока : 280 Мбайт (3%)
Заголовок : AC3 5.1 @ 448 kb/s [Ukrainian DUB R5]
Язык : Ukrainian

Аудио #3
Идентификатор : 4
Формат : DTS
Формат/Информация : Digital Theater Systems
Идентификатор кодека : A_DTS
Продолжительность : 1 ч. 27 м.
Вид битрейта : Постоянный
Битрейт : 1510 Кбит/сек
Каналы : 6 каналов
Расположение каналов : Front: L C R, Side: L R, LFE
Частота : 48,0 КГц
Битовая глубина : 24 бит
Метод сжатия : С потерями
Задержка видео : 11 мс.
Размер потока : 944 Мбайт (11%)
Заголовок : DTS 5.1 @ 1510 kb/s [English]
Язык : English

Текст #1
Идентификатор : 5
Формат : UTF-8
Идентификатор кодека : S_TEXT/UTF8
Идентификатор кодека/Информация : UTF-8 Plain Text
Заголовок : Russian
Язык : Russian

Текст #2
Идентификатор : 6
Формат : UTF-8
Идентификатор кодека : S_TEXT/UTF8
Идентификатор кодека/Информация : UTF-8 Plain Text
Заголовок : English
Язык : English

Свернуть
Не в сети
Профиль  
Начать новую темуОтветить на тему  [ 1 сообщение ] 
Вы не можете начинать темы
Вы не можете отвечать на сообщения
Вы не можете редактировать свои сообщения
Вы не можете удалять свои сообщения