Правила форума

  • В этом разделе создание новых тем Запрещено.
  • Для создания новых тем пользуйтесь Корневым разделом DVD и HD фильмы.
Начать новую темуОтветить на тему  [ 1 сообщение ] 
Торрент файл
Размер: 14.31 GB • Зарегистрирован: 4 года 1 месяц • Статус: Проверено
Скачан: 22 раза • Желающих скачать: 0 • Поблагодарили: 10 раз
 Раздают: 0  |  0 KB/s  ]   Качают: 0  |  0 KB/s  ] 
 Полного источника не было 2 года 8 месяцев 
Сообщения
 Добавлено: 2012-10-18 09:41
Top-releaser
Аватара пользователя
Стаж: 8 лет 9 месяцев
Сообщений: 479
Спасибок: 20187
Лайков: 16
Изображение

Изображение

The Patriot


«Some things are worth fighting for.»

Год выпуска: 2000
Страна: Изображение США, Изображение Германия; Sony Pictures
Жанр: Боевик, драма, военный
Продолжительность: 02:44:47
Перевод: Профессиональный (дублированный) [Лицензия], Оригинал

Режиссёр: Роланд Эммерих / Roland Emmerich

В ролях: Мэл Гибсон, Хит Леджер, Джоэли Ричардсон, Джейсон Айзекс, Крис Купер, Чеки Карио, Рене Обержене, Лиза Бреннер, Том Уилкинсон, Донал Лог, Леон Риппи, Адам Болдуин, Джей Арлен Джонс, Джои Д. Вийера, Грегори Смит, Мика Бурем, Скай МакКоул Бартусиак, Тревор Морган, Логан Лерман, Мэри Джо Дешанель

Описание: Когда над страной вспыхнуло смертоносное пламя страшной войны, прославленный ветеран и отец семерых детей Бенджамин Мартин остался в стороне. Но хладнокровное убийство его сына в одночасье меняет всю его жизнь.

Жажда мести превратила воинскую науку в жестокую бойню, а мирного плантатора — в безжалостного командира самого опасного отряда повстанцев…



Качество: BDRip 1080p
Формат: MKV

Видео: AVC at 10,9 Мбит/сек, 1920 x 816 (2.353) at 23.976 fps

Аудио 1: AC-3 at 640 Кбит/сек, 6 канала(ов), 48,0 КГц [Дубляж]
Аудио 2: AC-3 at 640 Кбит/сек, 6 канала(ов), 48,0 КГц [Оригинал]
Раздача: Изображение


Изображение
MediaInfo

Общее
Уникальный идентификатор : 191799696537209820955843909899874440703 (0x904B4723B40E0A6A82004D5ACFFF95FF)
Полное имя : C:\Users\Домашний\Desktop\Patriot.BDRip.1080p.[nntt].mkv
Формат : Matroska
Размер файла : 14,3 Гбайт
Продолжительность : 2 ч. 44 м.
Общий поток : 12,4 Мбит/сек
Дата кодирования : UTC 2009-04-25 14:47:56
Программа кодирования : mkvmerge v2.7.0 ('Do It Again') built on Apr 15 2009 00:27:10
Библиотека кодирования : libebml v0.7.7 + libmatroska v0.8.1

Видео
Идентификатор : 1
Формат : AVC
Формат/Информация : Advanced Video Codec
Профиль формата : Baseline@L4.1
Параметр CABAC формата : Нет
Параметр ReFrames формата : 1 кадр
Параметры GOP формата : M=1, N=12
Идентификатор кодека : V_MPEG4/ISO/AVC
Продолжительность : 2 ч. 44 м.
Вид битрейта : Переменный
Битрейт : 10,9 Мбит/сек
Максимальный битрейт : 40,0 Мбит/сек
Ширина : 1920 пикс.
Высота : 816 пикс.
Соотношение сторон : 2,35:1
Частота кадров : 23,976 кадр/сек
Цветовое пространство : YUV
Подвыборка цветности : 4:2:0
Битовая глубина : 8 бит
Тип развёртки : Прогрессивная
Бит/(Пиксели*Кадры) : 0.290
Размер потока : 12,6 Гбайт (88%)
Библиотека кодирования : x264 core 36

Аудио #1
Идентификатор : 2
Формат : AC-3
Формат/Информация : Audio Coding 3
Расширение режима : CM (complete main)
Идентификатор кодека : A_AC3
Продолжительность : 2 ч. 44 м.
Вид битрейта : Постоянный
Битрейт : 640 Кбит/сек
Канал(ы) : 6 канала(ов)
Расположение каналов : Front: L C R, Side: L R, LFE
Частота : 48,0 КГц
Битовая глубина : 16 бит
Метод сжатия : С потерями
Размер потока : 754 Мбайт (5%)
Язык : Russian

Аудио #2
Идентификатор : 3
Формат : AC-3
Формат/Информация : Audio Coding 3
Расширение режима : CM (complete main)
Идентификатор кодека : A_AC3
Продолжительность : 2 ч. 44 м.
Вид битрейта : Постоянный
Битрейт : 640 Кбит/сек
Канал(ы) : 6 канала(ов)
Расположение каналов : Front: L C R, Side: L R, LFE
Частота : 48,0 КГц
Битовая глубина : 16 бит
Метод сжатия : С потерями
Размер потока : 754 Мбайт (5%)
Язык : English


Свернуть

Знаете ли вы, что...

• Харрисон Форд отклонил предложение сыграть главную роль в связи с тем, что ему не понравился сценарий, предполагающий, по его мнению, повествование о войне за независимость, вплоть до мелодрамы на тему «месть одиночки».
• Сценарист Роберт Родат написал 17 черновых вариантов сценария, прежде чем выбрал окончательный приемлемый вариант.
• Во время съёмок Хит Леджер выполнял все трюки сам, не прибегая к помощи дублёров.
• По сценарию у персонажа Бенджамина Мартина было шестеро детей, но Мэл Гибсон настоял на том, чтоб его персонажу добавили ещё одного ребёнка, так как у него самого семеро детей.
• Фирменный знак режиссёра Роланда Эммериха (44) можно заметить в таверне, где Мартин набирает добровольцев в свой отряд, а также его видно на этикетке, на бутылке вина.
• Персонаж полковника Тэвингтона частично основан на реальном персонаже полковника Банастре Тарлтона, который был командиром Корнуэльской кавалерии. У полковника Тарлтона были свои слабости и недостатки, но он и близко не был таким безжалостным и злым, как полковник Тэвингтон (несмотря на то, что во многих исторических описаниях он изображается именно таким).
• Для съёмок дома тётушки Шарлотты был использован тот же самый дом, что и в фильме «Форрест Гамп» (1994), только лишь с незначительными изменениями в интерьерной отделке. Каменная оградка, которую можно видеть в «Форрест Гампе», замаскирована кустами в этом фильме.
• Во время обучения Мэла Гибсона и Хита Леджера стрельбе из заряжаемых с дула ружей, консультант по техническому оборудованию Марк Бэйкер дал актёрам совет: «Чем меньше цель, тем меньше промах», имея в виду, что если ты целишь в человека и промахиваешься, то ты не попадаешь в человека, но когда ты целишься в пуговицу (например) и не попадаешь, то всё равно попадаешь в человека. Гибсону так понравился этот маленький совет, что он активно его применял и в фильме, особенно в сценах, где снимались засады.
• Джейк Джилленхал проходил прослушивания на роль Гэбриела Мартина несколько раз, но, в конечном счете, роль досталась Хиту Леджеру.
• Один из «английских солдат» (на самом деле были использованы манекены), который плывёт по реке лицом вниз после «засады» — манекен Джона Траволты.
• Первоначально роль полковника Тэвингтона должен был исполнить Кевин Спэйси. Но после того как создатели фильма заплатили Мэлу Гибсону 25 млн. долларов за участие в этом проекте, бюджет картины не был рассчитан на столь же значительные траты в качестве гонорара Кевину.
• Роль Гэбриела почти досталась Райану Филиппу.


Свернуть

Скриншоты

Изображение
Изображение
Изображение
Изображение
Изображение
Изображение
Изображение
Свернуть
_________________
Изображение
Изображение
Не в сети
Профиль  
Начать новую темуОтветить на тему  [ 1 сообщение ] 
Вы не можете начинать темы
Вы не можете отвечать на сообщения
Вы не можете редактировать свои сообщения
Вы не можете удалять свои сообщения